  0
SECTION
  2
HEADER
  9
$ACADVER
  1
AC1027
  9
$ACADMAINTVER
 70
   105
  9
$DWGCODEPAGE
  3
ANSI_1252
  9
$REQUIREDVERSIONS
160
                 0
  9
$LASTSAVEDBY
  1
Rainer
  9
$INSBASE
 10
0.0
 20
0.0
 30
0.0
  9
$EXTMIN
 10
34.37019097773742
 20
30.27087699890181
 30
0.0
  9
$EXTMAX
 10
452.6450407480593
 20
254.3609254910974
 30
0.0
  9
$LIMMIN
 10
0.0
 20
0.0
  9
$LIMMAX
 10
420.0
 20
297.0
  9
$ORTHOMODE
 70
     0
  9
$REGENMODE
 70
     1
  9
$FILLMODE
 70
     1
  9
$QTEXTMODE
 70
     0
  9
$MIRRTEXT
 70
     0
  9
$LTSCALE
 40
1.0
  9
$ATTMODE
 70
     1
  9
$TEXTSIZE
 40
2.5
  9
$TRACEWID
 40
1.0
  9
$TEXTSTYLE
  7
Standard
  9
$CLAYER
  8
0
  9
$CELTYPE
  6
ByLayer
  9
$CECOLOR
 62
   256
  9
$CELTSCALE
 40
1.0
  9
$DISPSILH
 70
     0
  9
$DIMSCALE
 40
1.0
  9
$DIMASZ
 40
2.5
  9
$DIMEXO
 40
0.625
  9
$DIMDLI
 40
3.75
  9
$DIMRND
 40
0.0
  9
$DIMDLE
 40
0.0
  9
$DIMEXE
 40
1.25
  9
$DIMTP
 40
0.0
  9
$DIMTM
 40
0.0
  9
$DIMTXT
 40
2.5
  9
$DIMCEN
 40
2.5
  9
$DIMTSZ
 40
0.0
  9
$DIMTOL
 70
     0
  9
$DIMLIM
 70
     0
  9
$DIMTIH
 70
     0
  9
$DIMTOH
 70
     0
  9
$DIMSE1
 70
     0
  9
$DIMSE2
 70
     0
  9
$DIMTAD
 70
     1
  9
$DIMZIN
 70
     8
  9
$DIMBLK
  1

  9
$DIMASO
 70
     1
  9
$DIMSHO
 70
     1
  9
$DIMPOST
  1

  9
$DIMAPOST
  1

  9
$DIMALT
 70
     0
  9
$DIMALTD
 70
     3
  9
$DIMALTF
 40
0.03937007874016
  9
$DIMLFAC
 40
1.0
  9
$DIMTOFL
 70
     1
  9
$DIMTVP
 40
0.0
  9
$DIMTIX
 70
     0
  9
$DIMSOXD
 70
     0
  9
$DIMSAH
 70
     0
  9
$DIMBLK1
  1

  9
$DIMBLK2
  1

  9
$DIMSTYLE
  2
ISO-25
  9
$DIMCLRD
 70
     0
  9
$DIMCLRE
 70
     0
  9
$DIMCLRT
 70
     0
  9
$DIMTFAC
 40
1.0
  9
$DIMGAP
 40
0.625
  9
$DIMJUST
 70
     0
  9
$DIMSD1
 70
     0
  9
$DIMSD2
 70
     0
  9
$DIMTOLJ
 70
     0
  9
$DIMTZIN
 70
     8
  9
$DIMALTZ
 70
     0
  9
$DIMALTTZ
 70
     0
  9
$DIMUPT
 70
     0
  9
$DIMDEC
 70
     2
  9
$DIMTDEC
 70
     2
  9
$DIMALTU
 70
     2
  9
$DIMALTTD
 70
     3
  9
$DIMTXSTY
  7
Standard
  9
$DIMAUNIT
 70
     0
  9
$DIMADEC
 70
     0
  9
$DIMALTRND
 40
0.0
  9
$DIMAZIN
 70
     0
  9
$DIMDSEP
 70
    44
  9
$DIMATFIT
 70
     3
  9
$DIMFRAC
 70
     0
  9
$DIMLDRBLK
  1

  9
$DIMLUNIT
 70
     2
  9
$DIMLWD
 70
    -2
  9
$DIMLWE
 70
    -2
  9
$DIMTMOVE
 70
     0
  9
$DIMFXL
 40
1.0
  9
$DIMFXLON
 70
     0
  9
$DIMJOGANG
 40
0.7853981633974483
  9
$DIMTFILL
 70
     0
  9
$DIMTFILLCLR
 70
     0
  9
$DIMARCSYM
 70
     0
  9
$DIMLTYPE
  6

  9
$DIMLTEX1
  6

  9
$DIMLTEX2
  6

  9
$DIMTXTDIRECTION
 70
     0
  9
$LUNITS
 70
     2
  9
$LUPREC
 70
     4
  9
$SKETCHINC
 40
1.0
  9
$FILLETRAD
 40
0.0
  9
$AUNITS
 70
     0
  9
$AUPREC
 70
     0
  9
$MENU
  1
.
  9
$ELEVATION
 40
0.0
  9
$PELEVATION
 40
0.0
  9
$THICKNESS
 40
0.0
  9
$LIMCHECK
 70
     0
  9
$CHAMFERA
 40
0.0
  9
$CHAMFERB
 40
0.0
  9
$CHAMFERC
 40
0.0
  9
$CHAMFERD
 40
0.0
  9
$SKPOLY
 70
     0
  9
$TDCREATE
 40
2457427.830803519
  9
$TDUCREATE
 40
2457427.789136852
  9
$TDUPDATE
 40
2457824.483309537
  9
$TDUUPDATE
 40
2457824.44164287
  9
$TDINDWG
 40
0.2907456713
  9
$TDUSRTIMER
 40
2457824.432621169
  9
$USRTIMER
 70
     1
  9
$ANGBASE
 50
0.0
  9
$ANGDIR
 70
     0
  9
$PDMODE
 70
     0
  9
$PDSIZE
 40
0.0
  9
$PLINEWID
 40
0.0
  9
$SPLFRAME
 70
     0
  9
$SPLINETYPE
 70
     6
  9
$SPLINESEGS
 70
     8
  9
$HANDSEED
  5
16D5
  9
$SURFTAB1
 70
     6
  9
$SURFTAB2
 70
     6
  9
$SURFTYPE
 70
     6
  9
$SURFU
 70
     6
  9
$SURFV
 70
     6
  9
$UCSBASE
  2

  9
$UCSNAME
  2

  9
$UCSORG
 10
0.0
 20
0.0
 30
0.0
  9
$UCSXDIR
 10
1.0
 20
0.0
 30
0.0
  9
$UCSYDIR
 10
0.0
 20
1.0
 30
0.0
  9
$UCSORTHOREF
  2

  9
$UCSORTHOVIEW
 70
     0
  9
$UCSORGTOP
 10
0.0
 20
0.0
 30
0.0
  9
$UCSORGBOTTOM
 10
0.0
 20
0.0
 30
0.0
  9
$UCSORGLEFT
 10
0.0
 20
0.0
 30
0.0
  9
$UCSORGRIGHT
 10
0.0
 20
0.0
 30
0.0
  9
$UCSORGFRONT
 10
0.0
 20
0.0
 30
0.0
  9
$UCSORGBACK
 10
0.0
 20
0.0
 30
0.0
  9
$PUCSBASE
  2

  9
$PUCSNAME
  2

  9
$PUCSORG
 10
0.0
 20
0.0
 30
0.0
  9
$PUCSXDIR
 10
1.0
 20
0.0
 30
0.0
  9
$PUCSYDIR
 10
0.0
 20
1.0
 30
0.0
  9
$PUCSORTHOREF
  2

  9
$PUCSORTHOVIEW
 70
     0
  9
$PUCSORGTOP
 10
0.0
 20
0.0
 30
0.0
  9
$PUCSORGBOTTOM
 10
0.0
 20
0.0
 30
0.0
  9
$PUCSORGLEFT
 10
0.0
 20
0.0
 30
0.0
  9
$PUCSORGRIGHT
 10
0.0
 20
0.0
 30
0.0
  9
$PUCSORGFRONT
 10
0.0
 20
0.0
 30
0.0
  9
$PUCSORGBACK
 10
0.0
 20
0.0
 30
0.0
  9
$USERI1
 70
     0
  9
$USERI2
 70
     0
  9
$USERI3
 70
     0
  9
$USERI4
 70
     0
  9
$USERI5
 70
     0
  9
$USERR1
 40
0.0
  9
$USERR2
 40
0.0
  9
$USERR3
 40
0.0
  9
$USERR4
 40
0.0
  9
$USERR5
 40
0.0
  9
$WORLDVIEW
 70
     1
  9
$SHADEDGE
 70
     3
  9
$SHADEDIF
 70
    70
  9
$TILEMODE
 70
     1
  9
$MAXACTVP
 70
    64
  9
$PINSBASE
 10
0.0
 20
0.0
 30
0.0
  9
$PLIMCHECK
 70
     0
  9
$PEXTMIN
 10
0.0
 20
0.0
 30
0.0
  9
$PEXTMAX
 10
0.0
 20
0.0
 30
0.0
  9
$PLIMMIN
 10
0.0
 20
0.0
  9
$PLIMMAX
 10
0.0
 20
0.0
  9
$UNITMODE
 70
     0
  9
$VISRETAIN
 70
     1
  9
$PLINEGEN
 70
     0
  9
$PSLTSCALE
 70
     1
  9
$TREEDEPTH
 70
  3020
  9
$CMLSTYLE
  2
Standard
  9
$CMLJUST
 70
     0
  9
$CMLSCALE
 40
20.0
  9
$PROXYGRAPHICS
 70
     1
  9
$MEASUREMENT
 70
     1
  9
$CELWEIGHT
370
    -1
  9
$ENDCAPS
280
     0
  9
$JOINSTYLE
280
     0
  9
$LWDISPLAY
290
     0
  9
$INSUNITS
 70
     4
  9
$HYPERLINKBASE
  1

  9
$STYLESHEET
  1

  9
$XEDIT
290
     1
  9
$CEPSNTYPE
380
     0
  9
$PSTYLEMODE
290
     1
  9
$FINGERPRINTGUID
  2
{27630867-7D1C-4474-B2D2-897DFC2A76F3}
  9
$VERSIONGUID
  2
{C67BF5A3-2CBD-4B27-9F3C-9FC1985D3F2F}
  9
$EXTNAMES
290
     1
  9
$PSVPSCALE
 40
0.0
  9
$OLESTARTUP
290
     0
  9
$SORTENTS
280
   127
  9
$INDEXCTL
280
     0
  9
$HIDETEXT
280
     1
  9
$XCLIPFRAME
280
     2
  9
$HALOGAP
280
     0
  9
$OBSCOLOR
 70
   257
  9
$OBSLTYPE
280
     0
  9
$INTERSECTIONDISPLAY
280
     0
  9
$INTERSECTIONCOLOR
 70
   257
  9
$DIMASSOC
280
     2
  9
$PROJECTNAME
  1

  9
$CAMERADISPLAY
290
     0
  9
$LENSLENGTH
 40
50.0
  9
$CAMERAHEIGHT
 40
0.0
  9
$STEPSPERSEC
 40
2.0
  9
$STEPSIZE
 40
6.0
  9
$3DDWFPREC
 40
2.0
  9
$PSOLWIDTH
 40
5.0
  9
$PSOLHEIGHT
 40
80.0
  9
$LOFTANG1
 40
1.570796326794897
  9
$LOFTANG2
 40
1.570796326794897
  9
$LOFTMAG1
 40
0.0
  9
$LOFTMAG2
 40
0.0
  9
$LOFTPARAM
 70
     7
  9
$LOFTNORMALS
280
     1
  9
$LATITUDE
 40
37.795
  9
$LONGITUDE
 40
-122.394
  9
$NORTHDIRECTION
 40
0.0
  9
$TIMEZONE
 70
 -8000
  9
$LIGHTGLYPHDISPLAY
280
     1
  9
$TILEMODELIGHTSYNCH
280
     1
  9
$SOLIDHIST
280
     0
  9
$SHOWHIST
280
     1
  9
$DWFFRAME
280
     2
  9
$DGNFRAME
280
     2
  9
$REALWORLDSCALE
290
     1
  9
$INTERFERECOLOR
 62
   256
  9
$CSHADOW
280
     0
  9
$SHADOWPLANELOCATION
 40
0.0
  0
ENDSEC
  0
SECTION
  2
CLASSES
  0
CLASS
  1
ACDBDICTIONARYWDFLT
  2
AcDbDictionaryWithDefault
  3
ObjectDBX Classes
 90
        0
 91
        5
280
     0
281
     0
  0
CLASS
  1
DICTIONARYVAR
  2
AcDbDictionaryVar
  3
ObjectDBX Classes
 90
        0
 91
        5
280
     0
281
     0
  0
CLASS
  1
TABLESTYLE
  2
AcDbTableStyle
  3
ObjectDBX Classes
 90
     4095
 91
        5
280
     0
281
     0
  0
CLASS
  1
MATERIAL
  2
AcDbMaterial
  3
ObjectDBX Classes
 90
     1153
 91
        5
280
     0
281
     0
  0
CLASS
  1
VISUALSTYLE
  2
AcDbVisualStyle
  3
ObjectDBX Classes
 90
     4095
 91
        5
280
     0
281
     0
  0
CLASS
  1
SCALE
  2
AcDbScale
  3
ObjectDBX Classes
 90
     1153
 91
        5
280
     0
281
     0
  0
CLASS
  1
MLEADERSTYLE
  2
AcDbMLeaderStyle
  3
ACDB_MLEADERSTYLE_CLASS
 90
     4095
 91
        5
280
     0
281
     0
  0
CLASS
  1
CELLSTYLEMAP
  2
AcDbCellStyleMap
  3
ObjectDBX Classes
 90
     1152
 91
        5
280
     0
281
     0
  0
CLASS
  1
EXACXREFPANELOBJECT
  2
ExAcXREFPanelObject
  3
EXAC_ESW
 90
     1025
 91
        1
280
     1
281
     0
  0
CLASS
  1
NPOCOLLECTION
  2
AcDbImpNonPersistentObjectsCollection
  3
ObjectDBX Classes
 90
     1153
 91
        1
280
     1
281
     0
  0
CLASS
  1
LAYER_INDEX
  2
AcDbLayerIndex
  3
ObjectDBX Classes
 90
        0
 91
        5
280
     0
281
     0
  0
CLASS
  1
SPATIAL_INDEX
  2
AcDbSpatialIndex
  3
AutoCAD 2000
 90
        0
 91
        5
280
     0
281
     0
  0
CLASS
  1
IDBUFFER
  2
AcDbIdBuffer
  3
ObjectDBX Classes
 90
        0
 91
        5
280
     0
281
     0
  0
CLASS
  1
ACDBSECTIONVIEWSTYLE
  2
AcDbSectionViewStyle
  3
ObjectDBX Classes
 90
     1025
 91
        5
280
     0
281
     0
  0
CLASS
  1
ACDBDETAILVIEWSTYLE
  2
AcDbDetailViewStyle
  3
ObjectDBX Classes
 90
     1025
 91
        5
280
     0
281
     0
  0
CLASS
  1
SORTENTSTABLE
  2
AcDbSortentsTable
  3
ObjectDBX Classes
 90
        0
 91
        5
280
     0
281
     0
  0
CLASS
  1
RAPIDRTRENDERSETTINGS
  2
AcDbRapidRTRenderSettings
  3
ObjectDBX Classes
 90
     1024
 91
        5
280
     0
281
     0
  0
CLASS
  1
SOLID_BACKGROUND
  2
AcDbSolidBackground
  3
SCENEOE
 90
     4095
 91
        5
280
     0
281
     0
  0
CLASS
  1
DIMASSOC
  2
AcDbDimAssoc
  3
"AcDbDimAssoc|Product Desc:     AcDim ARX App For Dimension|Company:          Autodesk, Inc.|WEB Address:      www.autodesk.com"
 90
        0
 91
        5
280
     0
281
     0
  0
CLASS
  1
ACDBPLACEHOLDER
  2
AcDbPlaceHolder
  3
ObjectDBX Classes
 90
        0
 91
        1
280
     0
281
     0
  0
CLASS
  1
LAYOUT
  2
AcDbLayout
  3
ObjectDBX Classes
 90
        0
 91
        1
280
     0
281
     0
  0
CLASS
  1
SUN
  2
AcDbSun
  3
SCENEOE
 90
     1153
 91
        5
280
     0
281
     0
  0
CLASS
  1
RASTERVARIABLES
  2
AcDbRasterVariables
  3
ISM
 90
        0
 91
        5
280
     0
281
     0
  0
CLASS
  1
XRECORD
  2
AcDbXrecord
  3
ObjectDBX Classes
 90
        0
 91
        1
280
     0
281
     0
  0
CLASS
  1
LWPOLYLINE
  2
AcDbPolyline
  3
ObjectDBX Classes
 90
        0
 91
        1
280
     0
281
     1
  0
CLASS
  1
HATCH
  2
AcDbHatch
  3
ObjectDBX Classes
 90
        0
 91
        1
280
     0
281
     1
  0
ENDSEC
  0
SECTION
  2
TABLES
  0
TABLE
  2
VPORT
  5
8
330
0
100
AcDbSymbolTable
 70
     1
  0
VPORT
  5
EA
330
8
100
AcDbSymbolTableRecord
100
AcDbViewportTableRecord
  2
*Active
 70
     0
 10
0.0
 20
0.0
 11
1.0
 21
1.0
 12
-991.2306857806338
 22
-1859.741766562115
 13
0.0
 23
0.0
 14
10.0
 24
10.0
 15
10.0
 25
10.0
 16
0.0
 26
0.0
 36
478.6003466205642
 17
1260.067932128906
 27
1969.111145019531
 37
0.0
 40
312.6883063245965
 41
1.712694877505568
 42
50.0
 43
0.0
 44
0.0
 50
0.0
 51
0.0
 71
    16
 72
  1000
 73
     1
 74
     3
 75
     0
 76
     0
 77
     0
 78
     0
281
     0
 65
     1
110
0.0
120
0.0
130
0.0
111
1.0
121
0.0
131
0.0
112
0.0
122
1.0
132
0.0
 79
     0
146
0.0
348
F5
 60
     3
 61
     5
292
     1
282
     1
141
0.0
142
0.0
 63
   256
361
100A
1001
ACAD_NAV_VCDISPLAY
1070
     3
  0
ENDTAB
  0
TABLE
  2
LTYPE
  5
5
330
0
100
AcDbSymbolTable
 70
     1
  0
LTYPE
  5
14
330
5
100
AcDbSymbolTableRecord
100
AcDbLinetypeTableRecord
  2
ByBlock
 70
     0
  3

 72
    65
 73
     0
 40
0.0
  0
LTYPE
  5
15
330
5
100
AcDbSymbolTableRecord
100
AcDbLinetypeTableRecord
  2
ByLayer
 70
     0
  3

 72
    65
 73
     0
 40
0.0
  0
LTYPE
  5
16
330
5
100
AcDbSymbolTableRecord
100
AcDbLinetypeTableRecord
  2
Continuous
 70
     0
  3
Solid line
 72
    65
 73
     0
 40
0.0
  0
ENDTAB
  0
TABLE
  2
LAYER
  5
2
102
{ACAD_XDICTIONARY
360
1FF
102
}
330
0
100
AcDbSymbolTable
 70
     6
  0
LAYER
  5
10
330
2
100
AcDbSymbolTableRecord
100
AcDbLayerTableRecord
  2
0
 70
     0
 62
     7
  6
Continuous
370
    -3
390
F
347
EE
348
0
  0
LAYER
  5
442
330
2
100
AcDbSymbolTableRecord
100
AcDbLayerTableRecord
  2
Defpoints
 70
     0
 62
     2
  6
Continuous
290
     0
370
    -3
390
F
347
EE
348
0
  0
LAYER
  5
1316
330
2
100
AcDbSymbolTableRecord
100
AcDbLayerTableRecord
  2
innen
 70
     0
 62
     7
  6
Continuous
370
    -3
390
F
347
EE
348
0
1001
AcAecLayerStandard
1000

1000

  0
LAYER
  5
131B
330
2
100
AcDbSymbolTableRecord
100
AcDbLayerTableRecord
  2
bemassung
 70
     0
 62
     5
  6
Continuous
370
    -3
390
F
347
EE
348
0
1001
AcAecLayerStandard
1000

1000

  0
LAYER
  5
1347
330
2
100
AcDbSymbolTableRecord
100
AcDbLayerTableRecord
  2
kleinteile
 70
     0
 62
     3
  6
Continuous
370
    -3
390
F
347
EE
348
0
1001
AcAecLayerStandard
1000

1000

  0
LAYER
  5
15F8
330
2
100
AcDbSymbolTableRecord
100
AcDbLayerTableRecord
  2
aussen
 70
     0
 62
     1
  6
Continuous
370
    -3
390
F
347
EE
348
0
1001
AcAecLayerStandard
1000

1000

  0
ENDTAB
  0
TABLE
  2
STYLE
  5
3
330
0
100
AcDbSymbolTable
 70
     2
  0
STYLE
  5
11
330
3
100
AcDbSymbolTableRecord
100
AcDbTextStyleTableRecord
  2
Standard
 70
     0
 40
0.0
 41
1.0
 50
0.0
 71
     0
 42
2.5
  3
arial.ttf
  4

1001
ACAD
1000
Arial
1071
       34
  0
STYLE
  5
132
330
3
100
AcDbSymbolTableRecord
100
AcDbTextStyleTableRecord
  2
Beschriftung
 70
     0
 40
0.0
 41
1.0
 50
0.0
 71
     0
 42
2.5
  3
arial.ttf
  4

1001
AcadAnnotative
1000
AnnotativeData
1002
{
1070
     1
1070
     1
1002
}
1001
ACAD
1000
Arial
1071
       34
  0
ENDTAB
  0
TABLE
  2
VIEW
  5
6
330
0
100
AcDbSymbolTable
 70
     0
  0
ENDTAB
  0
TABLE
  2
UCS
  5
7
330
0
100
AcDbSymbolTable
 70
     0
  0
ENDTAB
  0
TABLE
  2
APPID
  5
9
330
0
100
AcDbSymbolTable
 70
    10
  0
APPID
  5
12
330
9
100
AcDbSymbolTableRecord
100
AcDbRegAppTableRecord
  2
ACAD
 70
     0
  0
APPID
  5
9E
330
9
100
AcDbSymbolTableRecord
100
AcDbRegAppTableRecord
  2
ACAD_PSEXT
 70
     0
  0
APPID
  5
133
330
9
100
AcDbSymbolTableRecord
100
AcDbRegAppTableRecord
  2
AcadAnnoPO
 70
     0
  0
APPID
  5
134
330
9
100
AcDbSymbolTableRecord
100
AcDbRegAppTableRecord
  2
AcadAnnotative
 70
     0
  0
APPID
  5
135
330
9
100
AcDbSymbolTableRecord
100
AcDbRegAppTableRecord
  2
ACAD_DSTYLE_DIMJAG
 70
     0
  0
APPID
  5
136
330
9
100
AcDbSymbolTableRecord
100
AcDbRegAppTableRecord
  2
ACAD_DSTYLE_DIMTALN
 70
     0
  0
APPID
  5
165
330
9
100
AcDbSymbolTableRecord
100
AcDbRegAppTableRecord
  2
ACAD_MLEADERVER
 70
     0
  0
APPID
  5
217
330
9
100
AcDbSymbolTableRecord
100
AcDbRegAppTableRecord
  2
ACAD_NAV_VCDISPLAY
 70
     0
  0
APPID
  5
25E
330
9
100
AcDbSymbolTableRecord
100
AcDbRegAppTableRecord
  2
ACAD_EXEMPT_FROM_CAD_STANDARDS
 70
     0
  0
APPID
  5
1317
330
9
100
AcDbSymbolTableRecord
100
AcDbRegAppTableRecord
  2
AcAecLayerStandard
 70
     0
  0
ENDTAB
  0
TABLE
  2
DIMSTYLE
  5
A
330
0
100
AcDbSymbolTable
 70
     3
100
AcDbDimStyleTable
  0
DIMSTYLE
105
1B0
330
A
100
AcDbSymbolTableRecord
100
AcDbDimStyleTableRecord
  2
Standard
 70
     0
178
     0
340
11
  0
DIMSTYLE
105
137
330
A
100
AcDbSymbolTableRecord
100
AcDbDimStyleTableRecord
  2
Beschriftung
 70
     0
 40
0.0
 41
2.5
 42
0.625
 43
3.75
 44
1.25
 73
     0
 74
     0
 77
     1
 78
     8
140
2.5
141
2.5
143
0.03937007874016
147
0.625
171
     3
172
     1
178
     0
271
     2
272
     2
274
     3
278
    44
283
     0
284
     8
340
11
1001
AcadAnnotative
1000
AnnotativeData
1002
{
1070
     1
1070
     1
1002
}
1001
ACAD_DSTYLE_DIMJAG
1070
   388
1040
1.5
1001
ACAD_DSTYLE_DIMTALN
1070
   392
1070
     0
  0
DIMSTYLE
105
27
102
{ACAD_REACTORS
330
12F6
330
1305
102
}
330
A
100
AcDbSymbolTableRecord
100
AcDbDimStyleTableRecord
  2
ISO-25
 70
     0
 41
2.5
 42
0.625
 43
3.75
 44
1.25
 73
     0
 74
     0
 77
     1
 78
     8
140
2.5
141
2.5
143
0.03937007874016
147
0.625
171
     3
172
     1
178
     0
271
     2
272
     2
274
     3
278
    44
283
     0
284
     8
340
11
  0
ENDTAB
  0
TABLE
  2
BLOCK_RECORD
  5
1
330
0
100
AcDbSymbolTable
 70
    15
  0
BLOCK_RECORD
  5
1F
102
{ACAD_XDICTIONARY
360
1CE
102
}
330
1
100
AcDbSymbolTableRecord
100
AcDbBlockTableRecord
  2
*Model_Space
340
22
 70
     0
280
     1
281
     0
  0
BLOCK_RECORD
  5
D2
330
1
100
AcDbSymbolTableRecord
100
AcDbBlockTableRecord
  2
*Paper_Space
340
D3
 70
     0
280
     1
281
     0
  0
BLOCK_RECORD
  5
D6
330
1
100
AcDbSymbolTableRecord
100
AcDbBlockTableRecord
  2
*Paper_Space0
340
D7
 70
     0
280
     1
281
     0
  0
BLOCK_RECORD
  5
121A
330
1
100
AcDbSymbolTableRecord
100
AcDbBlockTableRecord
  2
rand
340
0
102
{BLKREFS
331
0
331
0
331
0
331
0
331
0
331
0
331
0
331
0
331
0
331
0
102
}
 70
     4
280
     1
281
     0
  0
BLOCK_RECORD
  5
12F9
330
1
100
AcDbSymbolTableRecord
100
AcDbBlockTableRecord
  2
*D8
340
0
 70
     0
280
     1
281
     0
  0
BLOCK_RECORD
  5
1308
330
1
100
AcDbSymbolTableRecord
100
AcDbBlockTableRecord
  2
*D9
340
0
 70
     0
280
     1
281
     0
  0
BLOCK_RECORD
  5
153B
330
1
100
AcDbSymbolTableRecord
100
AcDbBlockTableRecord
  2
jzhfkjf
340
0
 70
     4
280
     1
281
     0
  0
ENDTAB
  0
ENDSEC
  0
SECTION
  2
BLOCKS
  0
BLOCK
  5
20
330
1F
100
AcDbEntity
  8
0
100
AcDbBlockBegin
  2
*Model_Space
 70
     0
 10
0.0
 20
0.0
 30
0.0
  3
*Model_Space
  1

  0
ENDBLK
  5
21
330
1F
100
AcDbEntity
  8
0
100
AcDbBlockEnd
  0
BLOCK
  5
D4
330
D2
100
AcDbEntity
 67
     1
  8
0
100
AcDbBlockBegin
  2
*Paper_Space
 70
     0
 10
0.0
 20
0.0
 30
0.0
  3
*Paper_Space
  1

  0
ENDBLK
  5
D5
330
D2
100
AcDbEntity
 67
     1
  8
0
100
AcDbBlockEnd
  0
BLOCK
  5
D8
330
D6
100
AcDbEntity
  8
0
100
AcDbBlockBegin
  2
*Paper_Space0
 70
     0
 10
0.0
 20
0.0
 30
0.0
  3
*Paper_Space0
  1

  0
ENDBLK
  5
D9
330
D6
100
AcDbEntity
  8
0
100
AcDbBlockEnd
  0
BLOCK
  5
122C
330
121A
100
AcDbEntity
  8
0
100
AcDbBlockBegin
  2
rand
 70
     0
 10
0.0
 20
0.0
 30
0.0
  3
rand
  1

  0
LINE
  5
121B
330
121A
100
AcDbEntity
  8
0
100
AcDbLine
 10
223.0524462767196
 20
31.05774646526703
 30
0.0
 11
199.530196276719
 21
31.05774646526627
 31
0.0
  0
LINE
  5
121C
330
121A
100
AcDbEntity
  8
0
100
AcDbLine
 10
196.6946962767197
 20
31.05774646528299
 30
0.0
 11
174.5901962767186
 21
31.05774646528468
 31
0.0
  0
LINE
  5
121D
330
121A
100
AcDbEntity
  8
0
100
AcDbLine
 10
171.7546962767176
 20
31.05774646529665
 30
0.0
 11
149.6501962767177
 21
31.05774646531949
 31
0.0
  0
LINE
  5
121E
330
121A
100
AcDbEntity
  8
0
100
AcDbLine
 10
146.8146962767172
 20
31.05774646531139
 30
0.0
 11
124.7101962767175
 21
31.0577464653364
 31
0.0
  0
LINE
  5
121F
330
121A
100
AcDbEntity
  8
0
100
AcDbLine
 10
121.8746962767201
 20
31.05774646532662
 30
0.0
 11
98.3524462767189
 21
31.05774646534008
 31
0.0
  0
LINE
  5
1220
330
121A
100
AcDbEntity
  8
0
100
AcDbLine
 10
124.7101962767175
 20
31.05774646533622
 30
0.0
 11
124.7101962767208
 21
34.68274646532318
 31
0.0
  0
LINE
  5
1221
330
121A
100
AcDbEntity
  8
0
100
AcDbLine
 10
121.8746962767216
 20
34.68274646532569
 30
0.0
 11
121.8746962767201
 21
31.05774646532673
 31
0.0
  0
LINE
  5
1222
330
121A
100
AcDbEntity
  8
0
100
AcDbLine
 10
146.8146962767215
 20
34.68274646530732
 30
0.0
 11
146.8146962767172
 21
31.05774646531135
 31
0.0
  0
LINE
  5
1223
330
121A
100
AcDbEntity
  8
0
100
AcDbLine
 10
149.6501962767177
 20
31.05774646531958
 30
0.0
 11
149.6501962767219
 21
34.68274646530413
 31
0.0
  0
LINE
  5
1224
330
121A
100
AcDbEntity
  8
0
100
AcDbLine
 10
171.7546962767211
 20
34.68274646529082
 30
0.0
 11
171.7546962767176
 21
31.05774646529668
 31
0.0
  0
LINE
  5
1225
330
121A
100
AcDbEntity
  8
0
100
AcDbLine
 10
174.5901962767186
 20
31.05774646528538
 30
0.0
 11
174.5901962767223
 21
34.68274646528782
 31
0.0
  0
LINE
  5
1226
330
121A
100
AcDbEntity
  8
0
100
AcDbLine
 10
196.6946962767221
 20
34.68274646527121
 30
0.0
 11
196.6946962767197
 21
31.05774646528256
 31
0.0
  0
LINE
  5
1227
330
121A
100
AcDbEntity
  8
0
100
AcDbLine
 10
199.530196276719
 20
31.05774646526672
 30
0.0
 11
199.5301962767211
 21
34.68274646526969
 31
0.0
  0
LINE
  5
1228
330
121A
100
AcDbEntity
  8
0
100
AcDbLine
 10
124.7101962767208
 20
34.68274646532311
 30
0.0
 11
121.8746962767216
 21
34.68274646532541
 31
0.0
  0
LINE
  5
1229
330
121A
100
AcDbEntity
  8
0
100
AcDbLine
 10
149.6501962767219
 20
34.68274646530412
 30
0.0
 11
146.8146962767215
 21
34.68274646530736
 31
0.0
  0
LINE
  5
122A
330
121A
100
AcDbEntity
  8
0
100
AcDbLine
 10
174.5901962767223
 20
34.68274646528784
 30
0.0
 11
171.7546962767211
 21
34.68274646529078
 31
0.0
  0
LINE
  5
122B
330
121A
100
AcDbEntity
  8
0
100
AcDbLine
 10
199.5301962767211
 20
34.68274646526968
 30
0.0
 11
196.6946962767221
 21
34.68274646527128
 31
0.0
  0
ENDBLK
  5
122D
330
121A
100
AcDbEntity
  8
0
100
AcDbBlockEnd
  0
BLOCK
  5
12FA
330
12F9
100
AcDbEntity
  8
0
100
AcDbBlockBegin
  2
*D8
 70
     1
 10
0.0
 20
0.0
 30
0.0
  3
*D8
  1

  0
LINE
  5
12FC
330
12F9
100
AcDbEntity
  8
bemassung
 62
     0
370
    -2
100
AcDbLine
 10
59.81802707823206
 20
150.2794940473691
 30
0.0
 11
59.81802707823203
 21
251.9834254910974
 31
0.0
  0
LINE
  5
12FD
330
12F9
100
AcDbEntity
  8
bemassung
 62
     0
370
    -2
100
AcDbLine
 10
452.645040747989
 20
104.9795674261529
 30
0.0
 11
452.645040747989
 21
251.9834254910974
 31
0.0
  0
LINE
  5
12FE
330
12F9
100
AcDbEntity
  8
bemassung
 62
     0
370
    -2
100
AcDbLine
 10
62.31802707823203
 20
250.7334254910974
 30
0.0
 11
450.145040747989
 21
250.7334254910974
 31
0.0
  0
SOLID
  5
12FF
330
12F9
100
AcDbEntity
  8
bemassung
 62
     0
100
AcDbTrace
 10
62.31802707823203
 20
251.150092157764
 30
0.0
 11
62.31802707823203
 21
250.3167588244307
 31
0.0
 12
59.81802707823203
 22
250.7334254910974
 32
0.0
 13
59.81802707823203
 23
250.7334254910974
 33
0.0
  0
SOLID
  5
1300
330
12F9
100
AcDbEntity
  8
bemassung
 62
     0
100
AcDbTrace
 10
450.145040747989
 20
250.3167588244307
 30
0.0
 11
450.145040747989
 21
251.150092157764
 31
0.0
 12
452.645040747989
 22
250.7334254910974
 32
0.0
 13
452.645040747989
 23
250.7334254910974
 33
0.0
  0
MTEXT
  5
1301
330
12F9
100
AcDbEntity
  8
bemassung
 62
     0
100
AcDbMText
 10
256.2315339131105
 20
252.8596754910974
 30
0.0
 40
2.5
 41
0.0
 46
0.0
 71
     5
 72
     1
  1
392,83
 73
     1
 44
1.0
  0
POINT
  5
1302
330
12F9
100
AcDbEntity
  8
Defpoints
 62
     0
100
AcDbPoint
 10
59.81802707823206
 20
149.6544940473691
 30
0.0
  0
POINT
  5
1303
330
12F9
100
AcDbEntity
  8
Defpoints
 62
     0
100
AcDbPoint
 10
452.645040747989
 20
104.3545674261529
 30
0.0
  0
POINT
  5
1304
330
12F9
100
AcDbEntity
  8
Defpoints
 62
     0
100
AcDbPoint
 10
452.645040747989
 20
250.7334254910974
 30
0.0
  0
ENDBLK
  5
12FB
330
12F9
100
AcDbEntity
  8
0
100
AcDbBlockEnd
  0
BLOCK
  5
1309
330
1308
100
AcDbEntity
  8
0
100
AcDbBlockBegin
  2
*D9
 70
     1
 10
0.0
 20
0.0
 30
0.0
  3
*D9
  1

  0
LINE
  5
130B
330
1308
100
AcDbEntity
  8
bemassung
 62
     0
370
    -2
100
AcDbLine
 10
160.0774462768316
 20
222.9513150081817
 30
0.0
 11
36.7476909777374
 21
222.9513150081817
 31
0.0
  0
LINE
  5
130C
330
1308
100
AcDbEntity
  8
bemassung
 62
     0
370
    -2
100
AcDbLine
 10
97.72744627671861
 20
31.05774646534019
 30
0.0
 11
36.74769097773738
 21
31.05774646534019
 31
0.0
  0
LINE
  5
130D
330
1308
100
AcDbEntity
  8
bemassung
 62
     0
370
    -2
100
AcDbLine
 10
37.9976909777374
 20
220.4513150081817
 30
0.0
 11
37.99769097773738
 21
33.55774646534019
 31
0.0
  0
SOLID
  5
130E
330
1308
100
AcDbEntity
  8
bemassung
 62
     0
100
AcDbTrace
 10
38.41435764440406
 20
220.4513150081817
 30
0.0
 11
37.58102431107073
 21
220.4513150081817
 31
0.0
 12
37.9976909777374
 22
222.9513150081817
 32
0.0
 13
37.9976909777374
 23
222.9513150081817
 33
0.0
  0
SOLID
  5
130F
330
1308
100
AcDbEntity
  8
bemassung
 62
     0
100
AcDbTrace
 10
37.58102431107072
 20
33.55774646534019
 30
0.0
 11
38.41435764440405
 21
33.55774646534019
 31
0.0
 12
37.99769097773738
 22
31.05774646534019
 32
0.0
 13
37.99769097773738
 23
31.05774646534019
 33
0.0
  0
MTEXT
  5
1310
330
1308
100
AcDbEntity
  8
bemassung
 62
     0
100
AcDbMText
 10
35.87144097773739
 20
104.91390025561
 30
0.0
 40
2.5
 41
0.0
 46
0.0
 71
     5
 72
     1
  1
191,89
 11
7.405591976382125E-17
 21
1.0
 31
0.0
 73
     1
 44
1.0
  0
POINT
  5
1311
330
1308
100
AcDbEntity
  8
Defpoints
 62
     0
100
AcDbPoint
 10
160.7024462768316
 20
222.9513150081817
 30
0.0
  0
POINT
  5
1312
330
1308
100
AcDbEntity
  8
Defpoints
 62
     0
100
AcDbPoint
 10
98.35244627671861
 20
31.05774646534019
 30
0.0
  0
POINT
  5
1313
330
1308
100
AcDbEntity
  8
Defpoints
 62
     0
100
AcDbPoint
 10
37.99769097773738
 20
31.05774646534019
 30
0.0
  0
ENDBLK
  5
130A
330
1308
100
AcDbEntity
  8
0
100
AcDbBlockEnd
  0
BLOCK
  5
15E2
330
153B
100
AcDbEntity
  8
0
100
AcDbBlockBegin
  2
jzhfkjf
 70
     0
 10
0.0
 20
0.0
 30
0.0
  3
jzhfkjf
  1

  0
LWPOLYLINE
  5
153C
330
153B
100
AcDbEntity
  8
0
100
AcDbPolyline
 90
        5
 70
     1
 43
0.0
 10
561.8474370303951
 20
199.6589170908774
 10
566.7801211188084
 20
196.8420461566659
 10
562.5655819655594
 20
192.6489098486255
 10
559.6592619255426
 20
193.3235871120888
 10
557.2721926963974
 20
196.9987073766972
  0
LWPOLYLINE
  5
153D
330
153B
100
AcDbEntity
  8
0
100
AcDbPolyline
 90
        5
 70
     1
 43
0.0
 10
564.508902155704
 20
170.4514539641958
 10
560.9845149758281
 20
171.5784475255649
 10
561.0468709971744
 20
173.8692093705495
 10
565.6495886796583
 20
177.0066295465556
 10
567.5554278437717
 20
176.7236056398758
  0
LWPOLYLINE
  5
153E
330
153B
100
AcDbEntity
  8
0
100
AcDbPolyline
 90
        5
 70
     1
 43
0.0
 10
528.947177147689
 20
189.669003022833
 10
526.8939633052239
 20
193.890462228159
 10
533.8949919811753
 20
198.9770073010218
 10
537.2753602962646
 20
195.7197822612914
 10
533.2411904470631
 20
192.5155707285773
  0
LWPOLYLINE
  5
153F
330
153B
100
AcDbEntity
  8
0
100
AcDbPolyline
 90
        5
 70
     1
 43
0.0
 10
546.7917820211155
 20
201.065600562696
 10
539.7290207729433
 20
197.3827167211227
 10
535.6166903843108
 20
201.3452392230963
 10
536.7722538439125
 20
206.5886168033257
 10
547.5795134941532
 20
206.5886168033263
  0
LWPOLYLINE
  5
1540
330
153B
100
AcDbEntity
  8
0
100
AcDbPolyline
 90
        5
 70
     1
 43
0.0
 10
536.0838128501963
 20
191.0699239903983
 10
540.2675837233336
 20
194.3929588112053
 10
546.28782644897
 20
197.5322203376124
 10
545.6445152532328
 20
193.0217769905602
 10
538.4587930340385
 20
187.8010442038814
  0
LWPOLYLINE
  5
1541
330
153B
100
AcDbEntity
  8
0
100
AcDbPolyline
 90
        5
 70
     1
 43
0.0
 10
524.6514312367236
 20
195.8457644447275
 10
519.6834237813016
 20
196.3303892088736
 10
523.0165239751792
 20
206.5886168033257
 10
533.8026627783858
 20
206.5886168033263
 10
532.728369586377
 20
201.7140036518292
  0
LWPOLYLINE
  5
1542
330
153B
100
AcDbEntity
  8
0
100
AcDbPolyline
 90
        5
 70
     1
 43
0.0
 10
562.206546943436
 20
189.7551420606694
 10
565.3148344311179
 20
185.9210021621975
 10
558.9555523303661
 20
182.944353823941
 10
554.9773366764838
 20
186.6877385156752
 10
559.1699216254056
 20
190.4600685765127
  0
LWPOLYLINE
  5
1543
330
153B
100
AcDbEntity
  8
0
100
AcDbPolyline
 90
        5
 70
     1
 43
0.0
 10
564.9704983910655
 20
190.950794399851
 10
569.8778891233147
 20
195.8332637538937
 10
575.0889561870391
 20
196.9967572185327
 10
575.088956187039
 20
190.4960662687642
 10
568.0211365631966
 20
187.1877661799987
  0
LWPOLYLINE
  5
1544
330
153B
100
AcDbEntity
  8
0
100
AcDbPolyline
 90
        5
 70
     1
 43
0.0
 10
563.4286600794283
 20
202.0954915352279
 10
564.1348723799636
 20
206.5886168033257
 10
575.0889561870388
 20
206.5886168033264
 10
575.0889561870387
 20
199.9681622032071
 10
569.38428179592
 20
198.6944592761881
  0
LWPOLYLINE
  5
1545
330
153B
100
AcDbEntity
  8
0
100
AcDbPolyline
 90
        5
 70
     1
 43
0.0
 10
555.0893021917539
 20
199.0840681431156
 10
560.5156339068353
 20
202.2391303183863
 10
561.1992696110269
 20
206.5886168033272
 10
550.5088615787054
 20
206.5886168033264
 10
549.722687346383
 20
201.0765188337807
  0
LWPOLYLINE
  5
1546
330
153B
100
AcDbEntity
  8
0
100
AcDbPolyline
 90
        5
 70
     1
 43
0.0
 10
548.5350621650068
 20
192.7497305956359
 10
549.3036704778012
 20
198.138668754821
 10
554.2717686074699
 20
196.2941744441697
 10
556.8708913301515
 20
192.2925776443358
 10
552.8580235062432
 20
188.6819502851477
  0
LWPOLYLINE
  5
1547
330
153B
100
AcDbEntity
  8
0
100
AcDbPolyline
 90
        5
 70
     1
 43
0.0
 10
564.2570081593843
 20
167.487343376023
 10
565.592073651445
 20
164.9478979042114
 10
558.7004277838538
 20
159.9408240934548
 10
555.6884662453391
 20
164.0864335002195
 10
559.9593654402547
 20
168.8616009210468
  0
LWPOLYLINE
  5
1548
330
153B
100
AcDbEntity
  8
0
100
AcDbPolyline
 90
        5
 70
     1
 43
0.0
 10
558.0704087741253
 20
171.0996931829569
 10
558.1351629449799
 20
173.4785554114174
 10
554.5109552179172
 20
174.2369190924458
 10
551.1280934759143
 20
170.3632481306675
 10
553.9445648643726
 20
166.4867078320684
  0
LWPOLYLINE
  5
1549
330
153B
100
AcDbEntity
  8
0
100
AcDbPolyline
 90
        5
 70
     1
 43
0.0
 10
556.6986010643944
 20
176.7419638848296
 10
559.3106769428791
 20
176.1953882943806
 10
564.0821752287426
 20
179.4478569497599
 10
565.1558826271287
 20
182.6446294453142
 10
559.5700412873889
 20
180.0300127199871
  0
LWPOLYLINE
  5
154A
330
153B
100
AcDbEntity
  8
0
100
AcDbPolyline
 90
        5
 70
     1
 43
0.0
 10
567.2274498182562
 20
179.7041144586247
 10
569.5732243569313
 20
179.3557585812616
 10
575.0889561870391
 20
181.3576652954317
 10
575.0889561870385
 20
187.294095601626
 10
568.7857578121476
 20
184.3436988947263
  0
LWPOLYLINE
  5
154B
330
153B
100
AcDbEntity
  8
0
100
AcDbPolyline
 90
        5
 70
     1
 43
0.0
 10
567.9628625081108
 20
166.6703768335011
 10
566.8887312699386
 20
168.7134958603389
 10
570.770480922368
 20
176.7051969257232
 10
575.0889561870382
 20
178.27256548054
 10
575.0889561870391
 20
171.8477869497928
  0
LWPOLYLINE
  5
154C
330
153B
100
AcDbEntity
  8
0
100
AcDbPolyline
 90
        5
 70
     1
 43
0.0
 10
517.607648001514
 20
167.5168289314091
 10
518.7623682478561
 20
161.9551065966688
 10
524.0526420791443
 20
164.6676211426305
 10
524.3090881547878
 20
167.6401824952591
 10
521.5514860375207
 20
171.0460948586197
  0
LWPOLYLINE
  5
154D
330
153B
100
AcDbEntity
  8
0
100
AcDbPolyline
 90
        5
 70
     1
 43
0.0
 10
544.5631581789404
 20
155.9600227123694
 10
544.5804191419143
 20
159.6601742687505
 10
542.3825060916655
 20
160.3087545084861
 10
537.9763242047204
 20
156.9008260167739
 10
537.65655924518
 20
155.0008060637545
  0
LWPOLYLINE
  5
154E
330
153B
100
AcDbEntity
  8
0
100
AcDbPolyline
 90
        5
 70
     1
 43
0.0
 10
520.9222657785898
 20
182.2702968335763
 10
526.6074097077735
 20
187.8493082463334
 10
524.1096068378799
 20
192.9848536533023
 10
518.765769675709
 20
193.5061402752711
 10
515.4261427811637
 20
183.2278255616171
  0
LWPOLYLINE
  5
154F
330
153B
100
AcDbEntity
  8
0
100
AcDbPolyline
 90
        5
 70
     1
 43
0.0
 10
533.7376635665096
 20
189.3653467587501
 10
529.2844133459357
 20
186.413218439697
 10
524.4384409024075
 20
181.6577125272494
 10
528.9269215311567
 20
180.875734185556
 10
536.1126437503519
 20
186.0964669722332
  0
LWPOLYLINE
  5
1550
330
153B
100
AcDbEntity
  8
0
100
AcDbPolyline
 90
        5
 70
     1
 43
0.0
 10
526.9157267139368
 20
164.1148603157465
 10
529.6016967916694
 20
159.9738888586305
 10
534.3977838316436
 20
165.1020906167108
 10
532.0669496719097
 20
170.0423680237884
 10
527.1836705863543
 20
167.2206968851876
  0
LWPOLYLINE
  5
1551
330
153B
100
AcDbEntity
  8
0
100
AcDbPolyline
 90
        5
 70
     1
 43
0.0
 10
524.9244857965891
 20
161.8556631729262
 10
518.7645143675144
 20
158.6972232439272
 10
516.0476580447835
 20
154.1007432095401
 10
522.2301825329806
 20
152.0919192308809
 10
527.5606392672069
 20
157.7914941902165
  0
LWPOLYLINE
  5
1552
330
153B
100
AcDbEntity
  8
0
100
AcDbPolyline
 90
        5
 70
     1
 43
0.0
 10
514.801703204729
 20
166.7659393582753
 10
510.3102555374711
 20
167.4827436136609
 10
506.9252574832767
 20
157.0647908289006
 10
513.2216839715562
 20
155.0189578469738
 10
516.1958887743554
 20
160.0508297497574
  0
LWPOLYLINE
  5
1553
330
153B
100
AcDbEntity
  8
0
100
AcDbPolyline
 90
        5
 70
     1
 43
0.0
 10
520.2427403545871
 20
173.7665590136443
 10
515.565269196404
 20
169.5807787069061
 10
511.217406681808
 20
170.2746677563131
 10
514.5209244405962
 20
180.4418499773072
 10
520.0061823313176
 20
179.4862141566518
  0
LWPOLYLINE
  5
1554
330
153B
100
AcDbEntity
  8
0
100
AcDbPolyline
 90
        5
 70
     1
 43
0.0
 10
528.2924249090077
 20
178.0425937501665
 10
522.9297271261295
 20
178.9768772786281
 10
523.1487187077548
 20
173.6819550907944
 10
526.1512903280483
 20
169.9734810729521
 10
530.8252453596867
 20
172.6741999515678
  0
LWPOLYLINE
  5
1555
330
153B
100
AcDbEntity
  8
0
100
AcDbPolyline
 90
        5
 70
     1
 43
0.0
 10
547.4600343944858
 20
155.2836275940333
 10
549.4626326325749
 20
153.2291730510499
 10
556.3542785001673
 20
158.2362468618065
 10
553.3423169616522
 20
162.3818562685719
 10
547.4810824371855
 20
159.7955976428312
  0
LWPOLYLINE
  5
1556
330
153B
100
AcDbEntity
  8
0
100
AcDbPolyline
 90
        5
 70
     1
 43
0.0
 10
545.9362499188965
 20
162.2837107330615
 10
543.6538073559008
 20
162.9572347127836
 10
544.0525024141426
 20
166.6384083533678
 10
548.781944192225
 20
168.6586708990183
 10
551.5984155806846
 20
164.7821306004197
  0
LWPOLYLINE
  5
1557
330
153B
100
AcDbEntity
  8
0
100
AcDbPolyline
 90
        5
 70
     1
 43
0.0
 10
540.9940434965006
 20
165.3319349282457
 10
540.7066919363976
 20
162.6788019967967
 10
536.1389363686899
 20
159.1459055477209
 10
532.7668312225919
 20
159.1126061581679
 10
536.9795993986907
 20
163.6170959614139
  0
LWPOLYLINE
  5
1558
330
153B
100
AcDbEntity
  8
0
100
AcDbPolyline
 90
        5
 70
     1
 43
0.0
 10
534.9232776948988
 20
156.2337595790004
 10
534.529699624631
 20
153.8951475320398
 10
530.9213183271877
 20
149.2679980287091
 10
525.2754376009492
 20
151.1024558792466
 10
530.0292270314607
 20
156.185431044607
  0
LWPOLYLINE
  5
1559
330
153B
100
AcDbEntity
  8
0
100
AcDbPolyline
 90
        5
 70
     1
 43
0.0
 10
547.09184377591
 20
151.5066941217614
 10
545.4806469186531
 20
153.1596121360038
 10
536.680560933627
 20
151.9374202776032
 10
533.8554226095603
 20
148.3146497565644
 10
539.9657500969815
 20
146.3292840054696
  0
LWPOLYLINE
  5
155A
330
153B
100
AcDbEntity
  8
0
100
AcDbPolyline
 90
        5
 70
     1
 43
0.0
 10
639.3852643725652
 20
167.5168289314102
 10
638.2305441262218
 20
161.9551065966686
 10
632.9402702949328
 20
164.6676211426309
 10
632.68382421929
 20
167.640182495258
 10
635.4414263365572
 20
171.0460948586201
  0
LWPOLYLINE
  5
155B
330
153B
100
AcDbEntity
  8
0
100
AcDbPolyline
 90
        5
 70
     1
 43
0.0
 10
612.4297541951391
 20
155.9600227123698
 10
612.4124932321631
 20
159.6601742687516
 10
614.610406282414
 20
160.3087545084857
 10
619.0165881693597
 20
156.9008260167744
 10
619.3363531288998
 20
155.000806063756
  0
LWPOLYLINE
  5
155C
330
153B
100
AcDbEntity
  8
0
100
AcDbPolyline
 90
        5
 70
     1
 43
0.0
 10
619.717552077814
 20
195.7197822612929
 10
623.0979203929035
 20
198.9770073010216
 10
630.0989490688554
 20
193.8904622281597
 10
628.0457352263898
 20
189.6690030228346
 10
623.7517219270145
 20
192.5155707285775
  0
LWPOLYLINE
  5
155D
330
153B
100
AcDbEntity
  8
0
100
AcDbPolyline
 90
        5
 70
     1
 43
0.0
 10
636.0706465954877
 20
182.2702968335779
 10
630.3855026663038
 20
187.8493082463329
 10
632.8833055361999
 20
192.9848536533032
 10
638.2271426983677
 20
193.5061402752714
 10
641.5667695929158
 20
183.2278255616174
  0
LWPOLYLINE
  5
155E
330
153B
100
AcDbEntity
  8
0
100
AcDbPolyline
 90
        5
 70
     1
 43
0.0
 10
623.2552488075678
 20
189.3653467587513
 10
627.7084990281414
 20
186.4132184396968
 10
632.5544714716714
 20
181.6577125272512
 10
628.0659908429219
 20
180.8757341855559
 10
620.8802686237267
 20
186.0964669722338
  0
LWPOLYLINE
  5
155F
330
153B
100
AcDbEntity
  8
0
100
AcDbPolyline
 90
        5
 70
     1
 43
0.0
 10
624.2645427877004
 20
201.7140036518284
 10
623.190249595693
 20
206.5886168033263
 10
633.9763883988992
 20
206.5886168033268
 10
637.3094885927768
 20
196.330389208874
 10
632.3414811373549
 20
195.8457644447279
  0
LWPOLYLINE
  5
1560
330
153B
100
AcDbEntity
  8
0
100
AcDbPolyline
 90
        5
 70
     1
 43
0.0
 10
630.0771856601416
 20
164.1148603157483
 10
627.3912155824082
 20
159.9738888586298
 10
622.5951285424358
 20
165.1020906167109
 10
624.9259627021694
 20
170.0423680237911
 10
629.8092417877237
 20
167.220696885187
  0
LWPOLYLINE
  5
1561
330
153B
100
AcDbEntity
  8
0
100
AcDbPolyline
 90
        5
 70
     1
 43
0.0
 10
632.0684265774886
 20
161.8556631729267
 10
638.2283980065654
 20
158.6972232439275
 10
640.9452543292952
 20
154.10074320954
 10
634.7627298410973
 20
152.0919192308823
 10
629.4322731068728
 20
157.7914941902181
  0
LWPOLYLINE
  5
1562
330
153B
100
AcDbEntity
  8
0
100
AcDbPolyline
 90
        5
 70
     1
 43
0.0
 10
642.1912091693492
 20
166.765939358275
 10
646.6826568366082
 20
167.4827436136604
 10
650.067654890801
 20
157.0647908289008
 10
643.7712284025218
 20
155.0189578469749
 10
640.7970235997237
 20
160.0508297497562
  0
LWPOLYLINE
  5
1563
330
153B
100
AcDbEntity
  8
0
100
AcDbPolyline
 90
        5
 70
     1
 43
0.0
 10
636.7501720194915
 20
173.7665590136436
 10
641.427643177675
 20
169.5807787069064
 10
645.7755056922723
 20
170.2746677563128
 10
642.4719879334822
 20
180.441849977307
 10
636.9867300427609
 20
179.4862141566514
  0
LWPOLYLINE
  5
1564
330
153B
100
AcDbEntity
  8
0
100
AcDbPolyline
 90
        5
 70
     1
 43
0.0
 10
628.7004874650721
 20
178.0425937501681
 10
634.063185247948
 20
178.9768772786286
 10
633.8441936663228
 20
173.6819550907946
 10
630.8416220460297
 20
169.9734810729533
 10
626.1676670143906
 20
172.6741999515672
  0
LWPOLYLINE
  5
1565
330
153B
100
AcDbEntity
  8
0
100
AcDbPolyline
 90
        5
 70
     1
 43
0.0
 10
609.5328779795947
 20
155.2836275940332
 10
607.5302797415025
 20
153.2291730510501
 10
600.6386338739126
 20
158.236246861807
 10
603.6505954124257
 20
162.3818562685744
 10
609.5118299368937
 20
159.7955976428297
  0
LWPOLYLINE
  5
1566
330
153B
100
AcDbEntity
  8
0
100
AcDbPolyline
 90
        5
 70
     1
 43
0.0
 10
611.0566624551814
 20
162.2837107330611
 10
613.3391050181783
 20
162.9572347127844
 10
612.9404099599346
 20
166.6384083533691
 10
608.210968181852
 20
168.6586708990189
 10
605.3944967933944
 20
164.7821306004184
  0
LWPOLYLINE
  5
1567
330
153B
100
AcDbEntity
  8
0
100
AcDbPolyline
 90
        5
 70
     1
 43
0.0
 10
615.9988688775775
 20
165.331934928246
 10
616.28622043768
 20
162.6788019967981
 10
620.8539760053885
 20
159.1459055477192
 10
624.2260811514875
 20
159.112606158167
 10
620.0133129753879
 20
163.6170959614147
  0
LWPOLYLINE
  5
1568
330
153B
100
AcDbEntity
  8
0
100
AcDbPolyline
 90
        5
 70
     1
 43
0.0
 10
622.0696346791801
 20
156.2337595790007
 10
622.4632127494472
 20
153.8951475320396
 10
626.0715940468915
 20
149.26799802871
 10
631.7174747731297
 20
151.1024558792465
 10
626.9636853426183
 20
156.1854310446063
  0
LWPOLYLINE
  5
1569
330
153B
100
AcDbEntity
  8
0
100
AcDbPolyline
 90
        5
 70
     1
 43
0.0
 10
609.9010685981685
 20
151.5066941217614
 10
611.5122654554261
 20
153.1596121360031
 10
620.3123514404518
 20
151.9374202776034
 10
623.137489764518
 20
148.3146497565655
 10
617.0271622770977
 20
146.3292840054693
  0
LWPOLYLINE
  5
156A
330
153B
100
AcDbEntity
  8
0
100
AcDbPolyline
 90
        5
 70
     1
 43
0.0
 10
595.1454753436823
 20
199.6589170908766
 10
590.2127912552701
 20
196.8420461566661
 10
594.4273304085175
 20
192.6489098486263
 10
597.3336504485356
 20
193.3235871120903
 10
599.7207196776818
 20
196.9987073766971
  0
LWPOLYLINE
  5
156B
330
153B
100
AcDbEntity
  8
0
100
AcDbPolyline
 90
        5
 70
     1
 43
0.0
 10
592.4840102183741
 20
170.4514539641962
 10
596.0083973982506
 20
171.5784475255657
 10
595.9460413769045
 20
173.8692093705487
 10
591.34332369442
 20
177.006629546556
 10
589.4374845303082
 20
176.7236056398766
  0
LWPOLYLINE
  5
156C
330
153B
100
AcDbEntity
  8
0
100
AcDbPolyline
 90
        5
 70
     1
 43
0.0
 10
610.2011303529629
 20
201.0656005626976
 10
617.2638916011354
 20
197.3827167211226
 10
621.3762219897679
 20
201.3452392230963
 10
620.2206585301652
 20
206.5886168033259
 10
609.4133988799256
 20
206.5886168033256
  0
LWPOLYLINE
  5
156D
330
153B
100
AcDbEntity
  8
0
100
AcDbPolyline
 90
        5
 70
     1
 43
0.0
 10
620.9090995238815
 20
191.0699239904001
 10
616.7253286507457
 20
194.3929588112039
 10
610.7050859251093
 20
197.5322203376145
 10
611.3483971208459
 20
193.02177699056
 10
618.5341193400404
 20
187.801044203884
  0
LWPOLYLINE
  5
156E
330
153B
100
AcDbEntity
  8
0
100
AcDbPolyline
 90
        5
 70
     1
 43
0.0
 10
594.7863654306444
 20
189.7551420606715
 10
591.6780779429612
 20
185.9210021621979
 10
598.0373600437134
 20
182.9443538239424
 10
602.0155756975936
 20
186.687738515676
 10
597.8229907486719
 20
190.4600685765133
  0
LWPOLYLINE
  5
156F
330
153B
100
AcDbEntity
  8
0
100
AcDbPolyline
 90
        5
 70
     1
 43
0.0
 10
592.0224139830124
 20
190.9507943998515
 10
587.1150232507628
 20
195.8332637538942
 10
581.9039561870383
 20
196.9967572185332
 10
581.9039561870387
 20
190.4960662687642
 10
588.9717758108819
 20
187.1877661799991
  0
LWPOLYLINE
  5
1570
330
153B
100
AcDbEntity
  8
0
100
AcDbPolyline
 90
        5
 70
     1
 43
0.0
 10
593.5642522946495
 20
202.0954915352268
 10
592.8580399941152
 20
206.5886168033274
 10
581.90395618704
 20
206.5886168033268
 10
581.9039561870395
 20
199.9681622032081
 10
587.6086305781595
 20
198.6944592761872
  0
LWPOLYLINE
  5
1571
330
153B
100
AcDbEntity
  8
0
100
AcDbPolyline
 90
        5
 70
     1
 43
0.0
 10
601.9036101823235
 20
199.0840681431164
 10
596.4772784672429
 20
202.2391303183852
 10
595.7936427630514
 20
206.5886168033256
 10
606.4840507953736
 20
206.5886168033264
 10
607.2702250276959
 20
201.0765188337807
  0
LWPOLYLINE
  5
1572
330
153B
100
AcDbEntity
  8
0
100
AcDbPolyline
 90
        5
 70
     1
 43
0.0
 10
608.4578502090718
 20
192.7497305956363
 10
607.6892418962769
 20
198.1386687548234
 10
602.7211437666074
 20
196.294174444172
 10
600.1220210439253
 20
192.292577644335
 10
604.134888867836
 20
188.6819502851483
  0
LWPOLYLINE
  5
1573
330
153B
100
AcDbEntity
  8
0
100
AcDbPolyline
 90
        5
 70
     1
 43
0.0
 10
592.7359042146946
 20
167.4873433760234
 10
591.4008387226345
 20
164.9478979042137
 10
598.2924845902248
 20
159.9408240934554
 10
601.3044461287388
 20
164.0864335002209
 10
597.0335469338246
 20
168.8616009210464
  0
LWPOLYLINE
  5
1574
330
153B
100
AcDbEntity
  8
0
100
AcDbPolyline
 90
        5
 70
     1
 43
0.0
 10
598.9225035999532
 20
171.0996931829578
 10
598.8577494290997
 20
173.4785554114184
 10
602.4819571561618
 20
174.2369190924476
 10
605.8648188981643
 20
170.3632481306686
 10
603.0483475097062
 20
166.4867078320694
  0
LWPOLYLINE
  5
1575
330
153B
100
AcDbEntity
  8
0
100
AcDbPolyline
 90
        5
 70
     1
 43
0.0
 10
600.2943113096835
 20
176.7419638848288
 10
597.6822354311996
 20
176.1953882943795
 10
592.9107371453364
 20
179.4478569497609
 10
591.8370297469509
 20
182.6446294453154
 10
597.4228710866896
 20
180.0300127199883
  0
LWPOLYLINE
  5
1576
330
153B
100
AcDbEntity
  8
0
100
AcDbPolyline
 90
        5
 70
     1
 43
0.0
 10
589.7654625558217
 20
179.7041144586249
 10
587.4196880171471
 20
179.3557585812629
 10
581.9039561870391
 20
181.3576652954318
 10
581.9039561870394
 20
187.2940956016271
 10
588.2071545619311
 20
184.343698894725
  0
LWPOLYLINE
  5
1577
330
153B
100
AcDbEntity
  8
0
100
AcDbPolyline
 90
        5
 70
     1
 43
0.0
 10
589.0300498659673
 20
166.6703768335013
 10
590.1041811041392
 20
168.7134958603393
 10
586.2224314517101
 20
176.7051969257244
 10
581.903956187039
 20
178.2725654805409
 10
581.903956187039
 20
171.8477869497928
  0
LWPOLYLINE
  5
1578
330
153B
100
AcDbEntity
  8
0
100
AcDbPolyline
 90
        5
 70
     1
 43
0.0
 10
632.7768283368093
 20
83.84152150229875
 10
627.1304878886602
 20
83.22105899765086
 10
628.0754580043779
 20
89.09062149007428
 10
630.8232856533665
 20
90.25308817617753
 10
634.9146467184321
 20
88.68293751483287
  0
LWPOLYLINE
  5
1579
330
153B
100
AcDbEntity
  8
0
100
AcDbPolyline
 90
        5
 70
     1
 43
0.0
 10
613.4559417377592
 20
105.9064855842179
 10
616.9696610558387
 20
107.066311448217
 10
618.2656900038634
 20
105.1763942358211
 10
616.3861424881248
 20
99.93275842070744
 10
614.6779289374207
 20
99.0415054171192
  0
LWPOLYLINE
  5
157A
330
153B
100
AcDbEntity
  8
0
100
AcDbPolyline
 90
        5
 70
     1
 43
0.0
 10
653.5217735404067
 20
111.2618193113384
 10
657.6641698960924
 20
109.053435889572
 10
654.9900148980895
 20
100.8232330763733
 10
650.3406906421842
 20
101.47145284509
 10
651.7210143242283
 20
106.4349399712316
  0
LWPOLYLINE
  5
157B
330
153B
100
AcDbEntity
  8
0
100
AcDbPolyline
 90
        5
 70
     1
 43
0.0
 10
645.7839369001425
 20
91.5529826459508
 10
649.333085969144
 20
98.68388516422925
 10
654.9891434285685
 20
97.89530427453485
 10
657.1362529655316
 20
92.97409954456032
 10
648.3929962458649
 20
86.62175170445448
  0
LWPOLYLINE
  5
157C
330
153B
100
AcDbEntity
  8
0
100
AcDbPolyline
 90
        5
 70
     1
 43
0.0
 10
648.5715546587758
 20
105.9336412238831
 10
647.140043782363
 20
100.7860907627502
 10
644.1147767353733
 20
94.70776494874957
 10
641.9840543446969
 20
98.7349191021695
 10
644.7287559987134
 20
107.1822421971947
  0
LWPOLYLINE
  5
157D
330
153B
100
AcDbEntity
  8
0
100
AcDbPolyline
 90
        5
 70
     1
 43
0.0
 10
660.6277142566126
 20
108.7896904448869
 10
664.9317720054914
 20
111.3177422903732
 10
668.2648721993671
 20
101.059514695922
 10
659.5387026038877
 20
94.71958137821673
 10
657.5425983320818
 20
99.29467995368225
  0
LWPOLYLINE
  5
157E
330
153B
100
AcDbEntity
  8
0
100
AcDbPolyline
 90
        5
 70
     1
 43
0.0
 10
626.6650094095343
 20
91.64276429936672
 10
621.8967011210481
 20
92.91764309089734
 10
625.2918384180937
 20
99.06369441681369
 10
630.7105888048277
 20
98.37356907650945
 10
629.536036307331
 20
92.8573503469396
  0
LWPOLYLINE
  5
157F
330
153B
100
AcDbEntity
  8
0
100
AcDbPolyline
 90
        5
 70
     1
 43
0.0
 10
625.1317125286126
 20
89.05085133863707
 10
624.0313935092613
 20
82.21635875704698
 10
620.4994359955338
 20
78.21208440254688
 10
616.6784257255507
 20
83.4712538560886
 10
620.4518419120806
 20
90.30208499115145
  0
LWPOLYLINE
  5
1580
330
153B
100
AcDbEntity
  8
0
100
AcDbPolyline
 90
        5
 70
     1
 43
0.0
 10
632.9297745427457
 20
80.94087177995488
 10
634.9994295592671
 20
76.89075590496554
 10
626.1373896015368
 20
70.45210699079189
 10
622.2459840241154
 20
75.80816727277394
 10
626.1124987576025
 20
80.1917380627495
  0
LWPOLYLINE
  5
1581
330
153B
100
AcDbEntity
  8
0
100
AcDbPolyline
 90
        5
 70
     1
 43
0.0
 10
637.9063865377573
 20
88.27891606139576
 10
635.370890979831
 20
82.53689938711949
 10
637.3743820880716
 20
78.61625991913519
 10
646.023103863023
 20
84.89992410152303
 10
643.419202281821
 20
89.82140665303746
  0
LWPOLYLINE
  5
1582
330
153B
100
AcDbEntity
  8
0
100
AcDbPolyline
 90
        5
 70
     1
 43
0.0
 10
639.4856479111567
 20
97.25598841312109
 10
642.0313690995753
 20
92.44446922965392
 10
636.9279267292119
 20
91.01652166043726
 10
632.4731126915318
 20
92.72615547084848
 10
633.5973174440015
 20
98.00591889108193
  0
LWPOLYLINE
  5
1583
330
153B
100
AcDbEntity
  8
0
100
AcDbPolyline
 90
        5
 70
     1
 43
0.0
 10
611.9174677716713
 20
108.4525609994352
 10
609.3447285026602
 20
109.722283735341
 10
611.9771029856519
 20
117.8238993453242
 10
616.850559127775
 20
116.240417456021
 10
616.2021020850159
 20
109.866854300789
  0
LWPOLYLINE
  5
1584
330
153B
100
AcDbEntity
  8
0
100
AcDbPolyline
 90
        5
 70
     1
 43
0.0
 10
619.0458177543726
 20
109.1665004964955
 10
620.3916906648204
 20
107.2038989797416
 10
623.7694912947418
 20
108.7206257270837
 10
624.2293972700759
 20
113.8428876082719
 10
619.6722508352067
 20
115.3235942435795
  0
LWPOLYLINE
  5
1585
330
153B
100
AcDbEntity
  8
0
100
AcDbPolyline
 90
        5
 70
     1
 43
0.0
 10
623.4720770125617
 20
105.4081359525755
 10
621.0375941649413
 20
104.3149852147202
 10
619.0891240722226
 20
98.87906647507606
 10
620.0994922677637
 20
95.66171382497231
 10
623.081699687951
 20
101.0602583506846
  0
LWPOLYLINE
  5
1586
330
153B
100
AcDbEntity
  8
0
100
AcDbPolyline
 90
        5
 70
     1
 43
0.0
 10
616.6951678618304
 20
96.82300377734083
 10
614.5926379478065
 20
95.72601792317988
 10
611.3070084038889
 20
90.86437554492875
 10
614.7963545891329
 20
86.06170254129438
 10
618.1615495206081
 20
92.15355066435939
  0
LWPOLYLINE
  5
1587
330
153B
100
AcDbEntity
  8
0
100
AcDbPolyline
 90
        5
 70
     1
 43
0.0
 10
608.4391677395622
 20
106.9352542828443
 10
610.5090733980859
 20
105.9136947694255
 10
612.0660759883245
 20
97.16663759477734
 10
609.4936322308462
 20
93.36027372451696
 10
605.7172421612273
 20
98.55802874098691
  0
LWPOLYLINE
  5
1588
330
153B
100
AcDbEntity
  8
0
100
AcDbPolyline
 90
        5
 70
     1
 43
0.0
 10
649.6749240907191
 20
135.8485126137126
 10
645.4716374219722
 20
139.6693129691914
 10
642.7860920343069
 20
134.3652976653972
 10
644.3258505255799
 20
131.8097097930286
 10
648.5587425599576
 20
130.675146665939
  0
LWPOLYLINE
  5
1589
330
153B
100
AcDbEntity
  8
0
100
AcDbPolyline
 90
        5
 70
     1
 43
0.0
 10
621.07453800598
 20
129.3541138953056
 10
623.2354681096826
 20
126.3504826649525
 10
625.3948430193374
 20
127.1176711055489
 10
626.9563889378859
 20
132.4646319030234
 10
626.0982805169157
 20
134.189733462085
  0
LWPOLYLINE
  5
158A
330
153B
100
AcDbEntity
  8
0
100
AcDbPolyline
 90
        5
 70
     1
 43
0.0
 10
655.66521283227
 20
121.964422908543
 10
654.3450954088817
 20
114.1092641050774
 10
659.3844582319198
 20
111.4226922855136
 10
664.0141178998974
 20
114.1419912239768
 10
660.674491005351
 20
124.4203059376301
  0
LWPOLYLINE
  5
158B
330
153B
100
AcDbEntity
  8
0
100
AcDbPolyline
 90
        5
 70
     1
 43
0.0
 10
649.4677039424635
 20
108.6917051211381
 10
651.3352415622969
 20
113.6975819052482
 10
652.4604993808584
 20
120.3932581405906
 10
648.369606936418
 20
118.3876291894764
 10
645.6249052824005
 20
109.9403060944501
  0
LWPOLYLINE
  5
158C
330
153B
100
AcDbEntity
  8
0
100
AcDbPolyline
 90
        5
 70
     1
 43
0.0
 10
640.1449032463404
 20
133.1296116437745
 10
635.5379058544132
 20
134.9009543260144
 10
634.6720712967538
 20
127.9330827223383
 10
639.4615779451624
 20
125.3063442877145
 10
641.7536970315638
 20
130.4594436206992
  0
LWPOLYLINE
  5
158D
330
153B
100
AcDbEntity
  8
0
100
AcDbPolyline
 90
        5
 70
     1
 43
0.0
 10
640.427928225797
 20
136.1277625709384
 10
643.5549653862668
 20
142.3037345097661
 10
643.0512051459604
 20
147.6192930509888
 10
636.8686806577625
 20
145.6104690723311
 10
635.9063766774259
 20
137.8662522131551
  0
LWPOLYLINE
  5
158E
330
153B
100
AcDbEntity
  8
0
100
AcDbPolyline
 90
        5
 70
     1
 43
0.0
 10
651.503619299406
 20
138.1052880095756
 10
655.5586037616605
 20
140.1653878855856
 10
652.1736057074667
 20
150.5833406703483
 10
645.877179219187
 20
148.5375076884237
 10
646.4286570848521
 20
142.7184440851718
  0
LWPOLYLINE
  5
158F
330
153B
100
AcDbEntity
  8
0
100
AcDbPolyline
 90
        5
 70
     1
 43
0.0
 10
651.2165887684804
 20
129.2435063433642
 10
652.5404024925127
 20
135.3792223110394
 10
656.465754905996
 20
137.3734637429345
 10
659.7692726647853
 20
127.2062815219386
 10
654.7698971707194
 20
124.7552534480972
  0
LWPOLYLINE
  5
1590
330
153B
100
AcDbEntity
  8
0
100
AcDbPolyline
 90
        5
 70
     1
 43
0.0
 10
647.2176473210146
 20
121.0526357062846
 10
652.1053190425488
 20
123.4488991234727
 10
648.8158739573445
 20
127.6038611352659
 10
644.2069561535019
 20
128.8392123215392
 10
642.0130898293997
 20
123.9070030142368
  0
LWPOLYLINE
  5
1591
330
153B
100
AcDbEntity
  8
0
100
AcDbPolyline
 90
        5
 70
     1
 43
0.0
 10
618.3333408417234
 20
128.1985879237376
 10
615.5056267523296
 20
128.683578852564
 10
612.8732522693381
 20
120.5819632425801
 10
617.7467084114624
 20
118.9984813532772
 10
620.9683820709482
 20
124.53595574706
  0
LWPOLYLINE
  5
1592
330
153B
100
AcDbEntity
  8
0
100
AcDbPolyline
 90
        5
 70
     1
 43
0.0
 10
623.6806540121794
 20
123.4310597446487
 10
625.9230762966753
 20
124.2277534766683
 10
627.7642647960458
 20
121.0152743667939
 10
625.1255465537625
 20
116.6009515055293
 10
620.5684001188937
 20
118.0816581408356
  0
LWPOLYLINE
  5
1593
330
153B
100
AcDbEntity
  8
0
100
AcDbPolyline
 90
        5
 70
     1
 43
0.0
 10
629.4706842252175
 20
123.8699506169494
 10
628.1436841112236
 20
126.1852812560792
 10
629.7624915610062
 20
131.728313881525
 10
632.4710090409304
 20
133.7373273276316
 10
631.7104806685546
 20
127.6169155205772
  0
LWPOLYLINE
  5
1594
330
153B
100
AcDbEntity
  8
0
100
AcDbPolyline
 90
        5
 70
     1
 43
0.0
 10
629.0342636345259
 20
134.7988357005952
 10
627.9780733099489
 20
136.9221519751664
 10
628.1775448635555
 20
142.7865478701584
 10
633.8234255897967
 20
144.6210057206958
 10
632.9652269927985
 20
137.7145851101751
  0
LWPOLYLINE
  5
1595
330
153B
100
AcDbEntity
  8
0
100
AcDbPolyline
 90
        5
 70
     1
 43
0.0
 10
616.4111875154274
 20
131.4706083050606
 10
618.6862339862527
 20
131.0804072924652
 10
625.0872667502605
 20
137.2417420371992
 10
625.2434405811844
 20
141.8331995980147
 10
619.1331130937629
 20
139.8478338469181
  0
LWPOLYLINE
  5
1596
330
153B
100
AcDbEntity
  8
0
100
AcDbPolyline
 90
        5
 70
     1
 43
0.0
 10
551.1547629120652
 20
64.26942565147925
 10
548.8198528493979
 20
69.44768106960532
 10
554.6941503305527
 20
70.36275564305117
 10
556.648847288498
 20
68.10863821322584
 10
556.419845369689
 20
63.73231937369405
  0
LWPOLYLINE
  5
1597
330
153B
100
AcDbEntity
  8
0
100
AcDbPolyline
 90
        5
 70
     1
 43
0.0
 10
566.169308478496
 20
89.46312963369309
 10
568.3581674069691
 20
86.4797898822938
 10
566.9612442970042
 20
84.66317656937451
 10
561.393438161863
 20
84.83035990271969
 10
560.0179391679433
 20
86.17955520694494
  0
LWPOLYLINE
  5
1598
330
153B
100
AcDbEntity
  8
0
100
AcDbPolyline
 90
        5
 70
     1
 43
0.0
 10
583.6435564373927
 20
53.01314834922815
 10
582.8233298649907
 20
48.39106729465496
 10
574.1695825090895
 20
48.39106729465558
 10
573.3493559366854
 20
53.01314834922681
 10
578.4964561870387
 20
53.23418439016314
  0
LWPOLYLINE
  5
1599
330
153B
100
AcDbEntity
  8
0
100
AcDbPolyline
 90
        5
 70
     1
 43
0.0
 10
562.5082158766428
 20
54.28190283901279
 10
570.386854561608
 20
53.11003155301557
 10
571.3846874439602
 20
47.48711635333621
 10
567.3678369532033
 20
43.92435794264702
 10
558.6245802335366
 20
50.27670578275431
  0
LWPOLYLINE
  5
159A
330
153B
100
AcDbEntity
  8
0
100
AcDbPolyline
 90
        5
 70
     1
 43
0.0
 10
577.0464561870392
 20
56.07458869560904
 10
571.7084835895773
 20
55.84535587087876
 10
564.9927932859632
 20
56.84424983557577
 10
568.1644150566843
 20
60.11514632201937
 10
577.0464561870399
 20
60.11514632201911
  0
LWPOLYLINE
  5
159B
330
153B
100
AcDbEntity
  8
0
100
AcDbPolyline
 90
        5
 70
     1
 43
0.0
 10
583.4882786121628
 20
45.49106729465444
 10
587.2226257825189
 20
42.1788761089899
 10
578.4964561870403
 20
35.83894279128694
 10
569.7702865915586
 20
42.17887610899007
 10
573.5046337619158
 20
45.49106729465501
  0
LWPOLYLINE
  5
159C
330
153B
100
AcDbEntity
  8
0
100
AcDbPolyline
 90
        5
 70
     1
 43
0.0
 10
556.6855297943466
 20
72.49282747022005
 10
556.4245232809576
 20
77.42171735203988
 10
563.318920566978
 20
76.09198420997734
 10
564.337058322798
 20
70.7251858860925
 10
558.7278658722186
 20
70.13764636044203
  0
LWPOLYLINE
  5
159D
330
153B
100
AcDbEntity
  8
0
100
AcDbPolyline
 90
        5
 70
     1
 43
0.0
 10
553.7466592897476
 20
73.15013430742837
 10
546.9066533082419
 20
72.08462552514692
 10
542.0069271952077
 20
74.20632790817302
 10
545.8279374651931
 20
79.46549736171431
 10
553.4904936563948
 20
77.98760821526099
  0
LWPOLYLINE
  5
159E
330
153B
100
AcDbEntity
  8
0
100
AcDbPolyline
 90
        5
 70
     1
 43
0.0
 10
548.4433440689995
 20
63.22761510674763
 10
545.2310135469384
 20
60.0077015822427
 10
536.3689735892074
 20
66.44635049641602
 10
540.2603791666288
 20
71.80241077839949
 10
545.6242214927253
 20
69.47973461591437
  0
LWPOLYLINE
  5
159F
330
153B
100
AcDbEntity
  8
0
100
AcDbPolyline
 90
        5
 70
     1
 43
0.0
 10
556.9600965805948
 20
60.76215622826084
 10
550.7156029892891
 20
61.39917506632864
 10
547.6059660757428
 20
58.28219756807115
 10
556.2546878506932
 20
51.99853338568442
 10
560.1306460608727
 20
55.99581269821476
  0
LWPOLYLINE
  5
15A0
330
153B
100
AcDbEntity
  8
0
100
AcDbPolyline
 90
        5
 70
     1
 43
0.0
 10
565.9858183408967
 20
62.03425732457174
 10
562.1964627783425
 20
58.12629140320487
 10
559.261353515456
 20
62.53869345911028
 10
559.5106986469038
 20
67.30377928010316
 10
564.8794504258818
 20
67.86613364774911
  0
LWPOLYLINE
  5
15A1
330
153B
100
AcDbEntity
  8
0
100
AcDbPolyline
 90
        5
 70
     1
 43
0.0
 10
568.1153554921909
 20
91.71308589655251
 10
568.5279134178409
 20
94.55227224661309
 10
577.046456187038
 20
94.55227224661405
 10
577.0464561870381
 20
89.42801721169116
 10
570.7844531699035
 20
88.07519717805332
  0
LWPOLYLINE
  5
15A2
330
153B
100
AcDbEntity
  8
0
100
AcDbPolyline
 90
        5
 70
     1
 43
0.0
 10
570.9971335896176
 20
85.15424163261872
 10
569.5464862298156
 20
83.26776320917037
 10
572.0327768845709
 20
80.5239782500895
 10
577.046456187038
 20
81.66944764629005
 10
577.0464561870384
 20
86.46111497287728
  0
LWPOLYLINE
  5
15A3
330
153B
100
AcDbEntity
  8
0
100
AcDbPolyline
 90
        5
 70
     1
 43
0.0
 10
568.7905058318026
 20
79.78322040717887
 10
566.9985611268401
 20
81.7607490278067
 10
561.2265848157705
 20
81.93406293570052
 10
558.4789215556686
 20
79.97892903369467
 10
564.5347952789441
 20
78.8109232371184
  0
LWPOLYLINE
  5
15A4
330
153B
100
AcDbEntity
  8
0
100
AcDbPolyline
 90
        5
 70
     1
 43
0.0
 10
558.5313798363773
 20
83.57549227422004
 10
556.8383668168805
 20
85.23612977813201
 10
551.1993547868542
 20
86.85861905055367
 10
547.7100086016114
 20
82.05594604691902
 10
554.5436028785425
 20
80.73794007591641
  0
LWPOLYLINE
  5
15A5
330
153B
100
AcDbEntity
  8
0
100
AcDbPolyline
 90
        5
 70
     1
 43
0.0
 10
565.5974572307036
 20
94.55227224661411
 10
565.2655324239196
 20
92.26799573154773
 10
557.4277269602334
 20
88.0842089544754
 10
553.012730959897
 20
89.35451723014302
 10
556.7891210295167
 20
94.55227224661354
  0
LWPOLYLINE
  5
15A6
330
153B
100
AcDbEntity
  8
0
100
AcDbPolyline
 90
        5
 70
     1
 43
0.0
 10
605.8381494620118
 20
64.2694256514801
 10
608.1730595246803
 20
69.44768106960453
 10
602.2987620435244
 20
70.36275564305262
 10
600.3440650855803
 20
68.10863821322545
 10
600.5730670043898
 20
63.732319373694
  0
LWPOLYLINE
  5
15A7
330
153B
100
AcDbEntity
  8
0
100
AcDbPolyline
 90
        5
 70
     1
 43
0.0
 10
590.8236038955819
 20
89.4631296336907
 10
588.6347449671101
 20
86.47978988229266
 10
590.0316680770756
 20
84.66317656937275
 10
595.5994742122147
 20
84.83035990271975
 10
596.9749732061367
 20
86.17955520694443
  0
LWPOLYLINE
  5
15A8
330
153B
100
AcDbEntity
  8
0
100
AcDbPolyline
 90
        5
 70
     1
 43
0.0
 10
594.4846964974372
 20
54.2819028390131
 10
586.6060578124693
 20
53.11003155301864
 10
585.6082249301185
 20
47.48711635333586
 10
589.6250754208754
 20
43.92435794264608
 10
598.368332140541
 20
50.2767057827536
  0
LWPOLYLINE
  5
15A9
330
153B
100
AcDbEntity
  8
0
100
AcDbPolyline
 90
        5
 70
     1
 43
0.0
 10
579.94645618704
 20
56.07458869560907
 10
585.284428784502
 20
55.84535587087822
 10
592.0001190881158
 20
56.84424983557631
 10
588.8284973173944
 20
60.11514632201892
 10
579.9464561870388
 20
60.11514632201988
  0
LWPOLYLINE
  5
15AA
330
153B
100
AcDbEntity
  8
0
100
AcDbPolyline
 90
        5
 70
     1
 43
0.0
 10
600.3073825797322
 20
72.49282747022022
 10
600.5683890931207
 20
77.42171735203917
 10
593.6739918071013
 20
76.09198420997774
 10
592.6558540512804
 20
70.72518588609188
 10
598.2650465018592
 20
70.13764636044093
  0
LWPOLYLINE
  5
15AB
330
153B
100
AcDbEntity
  8
0
100
AcDbPolyline
 90
        5
 70
     1
 43
0.0
 10
603.2462530843314
 20
73.15013430742758
 10
610.0862590658353
 20
72.08462552514584
 10
614.9859851788693
 20
74.20632790817297
 10
611.1649749088846
 20
79.46549736171374
 10
603.5024187176846
 20
77.98760821526065
  0
LWPOLYLINE
  5
15AC
330
153B
100
AcDbEntity
  8
0
100
AcDbPolyline
 90
        5
 70
     1
 43
0.0
 10
608.5495683050787
 20
63.2276151067482
 10
611.7618988271392
 20
60.0077015822427
 10
620.6239387848709
 20
66.44635049641681
 10
616.7325332074489
 20
71.80241077840071
 10
611.3686908813547
 20
69.4797346159144
  0
LWPOLYLINE
  5
15AD
330
153B
100
AcDbEntity
  8
0
100
AcDbPolyline
 90
        5
 70
     1
 43
0.0
 10
600.0328157934835
 20
60.76215622826038
 10
606.2773093847902
 20
61.39917506632816
 10
609.3869462983349
 20
58.28219756807101
 10
600.7382245233839
 20
51.998533385684
 10
596.862266313207
 20
55.99581269821385
  0
LWPOLYLINE
  5
15AE
330
153B
100
AcDbEntity
  8
0
100
AcDbPolyline
 90
        5
 70
     1
 43
0.0
 10
591.0070940331816
 20
62.0342573245718
 10
594.796449595737
 20
58.12629140320465
 10
597.7315588586218
 20
62.5386934591096
 10
597.4822137271739
 20
67.30377928010341
 10
592.1134619481958
 20
67.86613364774936
  0
LWPOLYLINE
  5
15AF
330
153B
100
AcDbEntity
  8
0
100
AcDbPolyline
 90
        5
 70
     1
 43
0.0
 10
588.8775568818879
 20
91.71308589655257
 10
588.4649989562358
 20
94.55227224661286
 10
579.9464561870393
 20
94.5522722466128
 10
579.9464561870382
 20
89.42801721168951
 10
586.2084592041768
 20
88.07519717805388
  0
LWPOLYLINE
  5
15B0
330
153B
100
AcDbEntity
  8
0
100
AcDbPolyline
 90
        5
 70
     1
 43
0.0
 10
585.9957787844615
 20
85.15424163261787
 10
587.446426144263
 20
83.26776320916895
 10
584.9601354895082
 20
80.52397825008882
 10
579.9464561870401
 20
81.66944764629051
 10
579.9464561870391
 20
86.46111497287791
  0
LWPOLYLINE
  5
15B1
330
153B
100
AcDbEntity
  8
0
100
AcDbPolyline
 90
        5
 70
     1
 43
0.0
 10
588.2024065422783
 20
79.78322040717904
 10
589.9943512472382
 20
81.76074902780721
 10
595.7663275583077
 20
81.93406293569922
 10
598.5139908184109
 20
79.97892903369387
 10
592.4581170951342
 20
78.8109232371176
  0
LWPOLYLINE
  5
15B2
330
153B
100
AcDbEntity
  8
0
100
AcDbPolyline
 90
        5
 70
     1
 43
0.0
 10
598.4615325377009
 20
83.57549227421947
 10
600.1545455571995
 20
85.23612977813212
 10
605.793557587224
 20
86.8586190505543
 10
609.2829037724681
 20
82.05594604692004
 10
602.449309495535
 20
80.73794007591647
  0
LWPOLYLINE
  5
15B3
330
153B
100
AcDbEntity
  8
0
100
AcDbPolyline
 90
        5
 70
     1
 43
0.0
 10
591.3954551433756
 20
94.55227224661269
 10
591.727379950158
 20
92.26799573154767
 10
599.5651854138443
 20
88.08420895447438
 10
603.9801814141819
 20
89.35451723014279
 10
600.2037913445624
 20
94.5522722466132
  0
LWPOLYLINE
  5
15B4
330
153B
100
AcDbEntity
  8
0
100
AcDbPolyline
 90
        5
 70
     1
 43
0.0
 10
507.31798828336
 20
135.8485126137131
 10
511.5212749521066
 20
139.6693129691902
 10
514.2068203397712
 20
134.3652976653987
 10
512.6670618484982
 20
131.8097097930288
 10
508.4341698141208
 20
130.6751466659387
  0
LWPOLYLINE
  5
15B5
330
153B
100
AcDbEntity
  8
0
100
AcDbPolyline
 90
        5
 70
     1
 43
0.0
 10
535.9183743680981
 20
129.3541138953063
 10
533.7574442643956
 20
126.3504826649528
 10
531.5980693547415
 20
127.1176711055495
 10
530.0365234361918
 20
132.4646319030239
 10
530.8946318571642
 20
134.1897334620858
  0
LWPOLYLINE
  5
15B6
330
153B
100
AcDbEntity
  8
0
100
AcDbPolyline
 90
        5
 70
     1
 43
0.0
 10
506.6522217318947
 20
101.4714528450901
 10
502.0028974759864
 20
100.8232330763718
 10
499.3287424779874
 20
109.0534358895736
 10
503.4711388336732
 20
111.2618193113362
 10
505.2718980498499
 20
106.4349399712321
  0
LWPOLYLINE
  5
15B7
330
153B
100
AcDbEntity
  8
0
100
AcDbPolyline
 90
        5
 70
     1
 43
0.0
 10
501.3276995418084
 20
121.9644229085428
 10
502.6478169651962
 20
114.1092641050778
 10
497.6084541421574
 20
111.4226922855136
 10
492.9787944741797
 20
114.1419912239757
 10
496.318421368726
 20
124.4203059376306
  0
LWPOLYLINE
  5
15B8
330
153B
100
AcDbEntity
  8
0
100
AcDbPolyline
 90
        5
 70
     1
 43
0.0
 10
507.5252084316145
 20
108.6917051211389
 10
505.6576708117817
 20
113.6975819052499
 10
504.53241299322
 20
120.3932581405913
 10
508.6233054376604
 20
118.3876291894756
 10
511.3680070916771
 20
109.9403060944507
  0
LWPOLYLINE
  5
15B9
330
153B
100
AcDbEntity
  8
0
100
AcDbPolyline
 90
        5
 70
     1
 43
0.0
 10
499.4503140419957
 20
99.29467995368191
 10
497.4542097701894
 20
94.71958137821838
 10
488.7280401747095
 20
101.0595146959211
 10
492.061140368587
 20
111.3177422903738
 10
496.365198117467
 20
108.7896904448863
  0
LWPOLYLINE
  5
15BA
330
153B
100
AcDbEntity
  8
0
100
AcDbPolyline
 90
        5
 70
     1
 43
0.0
 10
516.8480091277384
 20
133.1296116437757
 10
521.455006519665
 20
134.9009543260141
 10
522.3208410773241
 20
127.9330827223368
 10
517.531334428915
 20
125.3063442877144
 10
515.2392153425176
 20
130.4594436206987
  0
LWPOLYLINE
  5
15BB
330
153B
100
AcDbEntity
  8
0
100
AcDbPolyline
 90
        5
 70
     1
 43
0.0
 10
516.5649841482817
 20
136.1277625709375
 10
513.4379469878112
 20
142.3037345097659
 10
513.9417072281174
 20
147.6192930509886
 10
520.1242317163143
 20
145.6104690723307
 10
521.0865356966532
 20
137.8662522131555
  0
LWPOLYLINE
  5
15BC
330
153B
100
AcDbEntity
  8
0
100
AcDbPolyline
 90
        5
 70
     1
 43
0.0
 10
505.4892930746732
 20
138.1052880095747
 10
501.4343086124192
 20
140.1653878855863
 10
504.8193066666115
 20
150.5833406703479
 10
511.115733154892
 20
148.5375076884229
 10
510.564255289225
 20
142.7184440851731
  0
LWPOLYLINE
  5
15BD
330
153B
100
AcDbEntity
  8
0
100
AcDbPolyline
 90
        5
 70
     1
 43
0.0
 10
505.7763236055983
 20
129.2435063433655
 10
504.4525098815657
 20
135.37922231104
 10
500.5271574680827
 20
137.3734637429328
 10
497.2236397092925
 20
127.2062815219402
 10
502.2230152033585
 20
124.7552534480967
  0
LWPOLYLINE
  5
15BE
330
153B
100
AcDbEntity
  8
0
100
AcDbPolyline
 90
        5
 70
     1
 43
0.0
 10
509.775265053064
 20
121.0526357062859
 10
504.8875933315296
 20
123.448899123471
 10
508.1770384167344
 20
127.6038611352668
 10
512.7859562205783
 20
128.8392123215394
 10
514.9798225446788
 20
123.907003014236
  0
LWPOLYLINE
  5
15BF
330
153B
100
AcDbEntity
  8
0
100
AcDbPolyline
 90
        5
 70
     1
 43
0.0
 10
538.6595715323565
 20
128.198587923737
 10
541.4872856217479
 20
128.6835788525645
 10
544.1196601047393
 20
120.5819632425818
 10
539.2462039626166
 20
118.9984813532776
 10
536.02453030313
 20
124.5359557470609
  0
LWPOLYLINE
  5
15C0
330
153B
100
AcDbEntity
  8
0
100
AcDbPolyline
 90
        5
 70
     1
 43
0.0
 10
533.3122583618986
 20
123.4310597446481
 10
531.0698360774041
 20
124.2277534766675
 10
529.2286475780317
 20
121.0152743667919
 10
531.8673658203138
 20
116.6009515055301
 10
536.4245122551833
 20
118.0816581408354
  0
LWPOLYLINE
  5
15C1
330
153B
100
AcDbEntity
  8
0
100
AcDbPolyline
 90
        5
 70
     1
 43
0.0
 10
527.522228148861
 20
123.8699506169489
 10
528.8492282628545
 20
126.1852812560774
 10
527.2304208130715
 20
131.7283138815249
 10
524.5219033331487
 20
133.7373273276307
 10
525.282431705524
 20
127.6169155205777
  0
LWPOLYLINE
  5
15C2
330
153B
100
AcDbEntity
  8
0
100
AcDbPolyline
 90
        5
 70
     1
 43
0.0
 10
527.9586487395518
 20
134.7988357005948
 10
529.0148390641292
 20
136.922151975167
 10
528.8153675105218
 20
142.7865478701577
 10
523.1694867842834
 20
144.6210057206952
 10
524.0276853812795
 20
137.7145851101743
  0
LWPOLYLINE
  5
15C3
330
153B
100
AcDbEntity
  8
0
100
AcDbPolyline
 90
        5
 70
     1
 43
0.0
 10
540.581724858651
 20
131.4706083050598
 10
538.3066783878274
 20
131.0804072924651
 10
531.9056456238184
 20
137.2417420372018
 10
531.7494717928955
 20
141.8331995980154
 10
537.8597992803159
 20
139.8478338469181
  0
LWPOLYLINE
  5
15C4
330
153B
100
AcDbEntity
  8
0
100
AcDbPolyline
 90
        5
 70
     1
 43
0.0
 10
524.2160840372696
 20
83.8415215022996
 10
529.8624244854168
 20
83.22105899765177
 10
528.9174543697
 20
89.09062149007644
 10
526.1696267207124
 20
90.253088176179
 10
522.0782656556465
 20
88.68293751483355
  0
LWPOLYLINE
  5
15C5
330
153B
100
AcDbEntity
  8
0
100
AcDbPolyline
 90
        5
 70
     1
 43
0.0
 10
543.5369706363188
 20
105.906485584219
 10
540.0232513182406
 20
107.0663114482178
 10
538.7272223702155
 20
105.176394235822
 10
540.6067698859537
 20
99.93275842070693
 10
542.3149834366578
 20
99.04150541711942
  0
LWPOLYLINE
  5
15C6
330
153B
100
AcDbEntity
  8
0
100
AcDbPolyline
 90
        5
 70
     1
 43
0.0
 10
511.2089754739335
 20
91.55298264595075
 10
507.6598264049348
 20
98.68388516423164
 10
502.0037689455096
 20
97.89530427453366
 10
499.8566594085464
 20
92.97409954456026
 10
508.5999161282125
 20
86.62175170445488
  0
LWPOLYLINE
  5
15C7
330
153B
100
AcDbEntity
  8
0
100
AcDbPolyline
 90
        5
 70
     1
 43
0.0
 10
508.4213577153005
 20
105.9336412238826
 10
509.8528685917163
 20
100.786090762751
 10
512.878135638706
 20
94.70776494874815
 10
515.0088580293818
 20
98.73491910216802
 10
512.2641563753645
 20
107.1822421971947
  0
LWPOLYLINE
  5
15C8
330
153B
100
AcDbEntity
  8
0
100
AcDbPolyline
 90
        5
 70
     1
 43
0.0
 10
530.3279029645446
 20
91.64276429936712
 10
535.0962112530303
 20
92.9176430908982
 10
531.7010739559845
 20
99.06369441681369
 10
526.2823235692499
 20
98.3735690765098
 10
527.4568760667471
 20
92.85735034693994
  0
LWPOLYLINE
  5
15C9
330
153B
100
AcDbEntity
  8
0
100
AcDbPolyline
 90
        5
 70
     1
 43
0.0
 10
531.8611998454649
 20
89.05085133863531
 10
532.9615188648169
 20
82.21635875704777
 10
536.4934763785434
 20
78.21208440254566
 10
540.3144866485285
 20
83.47125385608888
 10
536.5410704619976
 20
90.30208499115224
  0
LWPOLYLINE
  5
15CA
330
153B
100
AcDbEntity
  8
0
100
AcDbPolyline
 90
        5
 70
     1
 43
0.0
 10
524.0631378313324
 20
80.94087177995578
 10
521.993482814811
 20
76.89075590496657
 10
530.855522772541
 20
70.45210699079146
 10
534.746928349964
 20
75.80816727277477
 10
530.8804136164754
 20
80.19173806274904
  0
LWPOLYLINE
  5
15CB
330
153B
100
AcDbEntity
  8
0
100
AcDbPolyline
 90
        5
 70
     1
 43
0.0
 10
519.0865258363199
 20
88.27891606139502
 10
521.6220213942468
 20
82.5368993871204
 10
519.6185302860058
 20
78.61625991913587
 10
510.9698085110552
 20
84.89992410152314
 10
513.5737100922561
 20
89.82140665303706
  0
LWPOLYLINE
  5
15CC
330
153B
100
AcDbEntity
  8
0
100
AcDbPolyline
 90
        5
 70
     1
 43
0.0
 10
517.507264462921
 20
97.25598841312052
 10
514.9615432745052
 20
92.44446922965318
 10
520.0649856448659
 20
91.01652166043806
 10
524.5197996825461
 20
92.72615547084985
 10
523.3955949300771
 20
98.00591889108131
  0
LWPOLYLINE
  5
15CD
330
153B
100
AcDbEntity
  8
0
100
AcDbPolyline
 90
        5
 70
     1
 43
0.0
 10
545.0754446024074
 20
108.4525609994352
 10
547.6481838714177
 20
109.7222837353397
 10
545.015809388427
 20
117.8238993453246
 10
540.142353246304
 20
116.2404174560216
 10
540.7908102890638
 20
109.8668543007899
  0
LWPOLYLINE
  5
15CE
330
153B
100
AcDbEntity
  8
0
100
AcDbPolyline
 90
        5
 70
     1
 43
0.0
 10
537.9470946197051
 20
109.1665004964938
 10
536.6012217092589
 20
107.2038989797404
 10
533.2234210793358
 20
108.7206257270839
 10
532.7635151040022
 20
113.842887608271
 10
537.3206615388707
 20
115.3235942435795
  0
LWPOLYLINE
  5
15CF
330
153B
100
AcDbEntity
  8
0
100
AcDbPolyline
 90
        5
 70
     1
 43
0.0
 10
533.5208353615169
 20
105.4081359525771
 10
535.9553182091364
 20
104.314985214719
 10
537.9037883018549
 20
98.87906647507492
 10
536.8934201063139
 20
95.66171382497242
 10
533.9112126861273
 20
101.0602583506842
  0
LWPOLYLINE
  5
15D0
330
153B
100
AcDbEntity
  8
0
100
AcDbPolyline
 90
        5
 70
     1
 43
0.0
 10
540.2977445122474
 20
96.82300377734072
 10
542.4002744262709
 20
95.72601792317965
 10
545.6859039701897
 20
90.86437554492835
 10
542.1965577849456
 20
86.06170254129256
 10
538.8313628534706
 20
92.15355066435967
  0
LWPOLYLINE
  5
15D1
330
153B
100
AcDbEntity
  8
0
100
AcDbPolyline
 90
        5
 70
     1
 43
0.0
 10
548.5537446345146
 20
106.9352542828444
 10
546.4838389759929
 20
105.9136947694257
 10
544.9268363857527
 20
97.16663759477757
 10
547.4992801432327
 20
93.36027372451764
 10
551.2756702128494
 20
98.55802874098725
  0
LWPOLYLINE
  5
15D2
330
153B
100
AcDbEntity
  8
0
100
AcDbPolyline
 90
        5
 70
     1
 43
0.0
 10
517.5855157584995
 20
100.1893791630768
 10
511.562775503054
 20
118.725467695944
 10
523.3534104339697
 20
125.1918777492495
 10
529.8013752495638
 20
114.4050502517151
 10
530.9252002566897
 20
101.8883048649132
  0
LWPOLYLINE
  5
15D3
330
153B
100
AcDbEntity
  8
0
100
AcDbPolyline
 90
        5
 70
     1
 43
0.0
 10
531.1064262767602
 20
178.8746399384773
 10
546.8741649709275
 20
190.330572670265
 10
556.6675929572815
 20
181.1152430870292
 10
548.4012410827522
 20
171.6495511201892
 10
536.8443898457333
 20
166.7128429851995
  0
LWPOLYLINE
  5
15D4
330
153B
100
AcDbEntity
  8
0
100
AcDbPolyline
 90
        5
 70
     1
 43
0.0
 10
610.1187474031523
 20
190.3305726702649
 10
625.8864860973196
 20
178.8746399384748
 10
620.1485225283441
 20
166.7128429851985
 10
608.5916712913265
 20
171.6495511201877
 10
600.3253194167966
 20
181.1152430870275
  0
LWPOLYLINE
  5
15D5
330
153B
100
AcDbEntity
  8
0
100
AcDbPolyline
 90
        5
 70
     1
 43
0.0
 10
645.4301368710253
 20
118.7254676959424
 10
639.4073966155794
 20
100.189379163077
 10
626.0677121173894
 20
101.8883048649128
 10
627.1915371245153
 20
114.4050502517143
 10
633.639501940108
 20
125.1918777492476
  0
LWPOLYLINE
  5
15D6
330
153B
100
AcDbEntity
  8
0
100
AcDbPolyline
 90
        5
 70
     1
 43
0.0
 10
588.2414546257614
 20
63.01514632201821
 10
568.7514577483163
 20
63.01514632202029
 10
566.2450428982082
 20
76.22693710339183
 10
578.4964561870389
 20
79.0260030459745
 10
590.7478694758687
 20
76.2269371033928
  0
CIRCLE
  5
15D7
330
153B
100
AcDbEntity
  8
0
100
AcDbCircle
 10
551.2560396974272
 20
121.3760933069
 30
0.0
 40
2.174999999999999
  0
LWPOLYLINE
  5
15D8
330
153B
100
AcDbEntity
  8
0
100
AcDbPolyline
 90
        5
 70
     1
 43
0.0
 10
561.9005763868079
 20
107.3847722466193
 10
595.0923359872572
 20
107.3847722466109
 10
605.3491537770111
 20
138.9520115019166
 10
578.4964561870464
 20
158.4616382927054
 10
551.6437585970694
 20
138.9520115019313
  0
CIRCLE
  5
15D9
330
153B
100
AcDbEntity
  8
0
100
AcDbCircle
 10
578.4964561870324
 20
101.5847722466139
 30
0.0
 40
2.174999999999998
  0
CIRCLE
  5
15DA
330
153B
100
AcDbEntity
  8
0
100
AcDbCircle
 10
605.7368726766454
 20
121.3760933068888
 30
0.0
 40
2.174999999999999
  0
CIRCLE
  5
15DB
330
153B
100
AcDbEntity
  8
0
100
AcDbCircle
 10
595.3319594453249
 20
153.3991234646851
 30
0.0
 40
2.174999999999998
  0
CIRCLE
  5
15DC
330
153B
100
AcDbEntity
  8
0
100
AcDbCircle
 10
561.6609529287616
 20
153.3991234646919
 30
0.0
 40
2.174999999999998
  0
LWPOLYLINE
  5
15DD
330
153B
100
AcDbEntity
  8
0
100
AcDbPolyline
 90
       18
 70
     0
 43
0.0
 10
516.1464561870389
 20
216.0444538993347
 10
538.9187061870396
 20
216.044453899333
 10
538.9187061870392
 20
212.4194538993461
 10
543.2542061870388
 20
212.4194538993459
 10
543.2542061870382
 20
216.0444538993345
 10
563.8587061870395
 20
216.0444538993449
 10
563.8587061870414
 20
212.4194538993422
 10
568.1942061870385
 20
212.4194538993424
 10
568.194206187038
 20
216.044453899343
 10
588.7987061870392
 20
216.0444538993345
 10
588.7987061870376
 20
212.4194538993403
 10
593.134206187039
 20
212.4194538993387
 10
593.134206187039
 20
216.0444538993343
 10
613.7387061870406
 20
216.0444538993343
 10
613.7387061870411
 20
212.4194538993361
 10
618.0742061870387
 20
212.4194538993352
 10
618.0742061870394
 20
216.0444538993375
 10
640.8464561870398
 20
216.0444538993342
  0
LWPOLYLINE
  5
15DE
330
153B
100
AcDbEntity
  8
0
100
AcDbPolyline
 90
       18
 70
     0
 43
0.0
 10
516.1464561870389
 20
216.0444538993347
 10
509.1094439368829
 20
194.3867571461314
 10
512.5570238084402
 20
193.2665705415265
 10
511.2172806293272
 20
189.1432650151289
 10
507.7697007577684
 20
190.2634516197361
 10
501.4025600971573
 20
170.6674076297349
 10
504.8501399687293
 20
169.5472210251231
 10
503.5103967896173
 20
165.4239154987285
 10
500.0628169180467
 20
166.544102103338
 10
493.695676257454
 20
146.9480581133317
 10
497.1432561290185
 20
145.8278715087258
 10
495.8035129499066
 20
141.7045659823264
 10
492.3559330783415
 20
142.8247525869349
 10
485.9887924177395
 20
123.2287085969306
 10
489.4363722893074
 20
122.1085219923208
 10
488.0966291101964
 20
117.9852164659252
 10
484.6490492386245
 20
119.105403070535
 10
477.61203698847
 20
97.44770631733172
  0
LWPOLYLINE
  5
15DF
330
153B
100
AcDbEntity
  8
0
100
AcDbPolyline
 90
       18
 70
     0
 43
0.0
 10
679.3808753855909
 20
97.44770631732638
 10
672.3438631354352
 20
119.105403070529
 10
668.8962832638779
 20
117.9852164659239
 10
667.5565400847656
 20
122.1085219923206
 10
671.0041199563249
 20
123.2287085969263
 10
664.6369792957365
 20
142.8247525869346
 10
661.1893994241635
 20
141.7045659823258
 10
659.8496562450518
 20
145.8278715087206
 10
663.2972361166223
 20
146.94805811333
 10
656.9300954560167
 20
166.5441021033319
 10
653.4825155844528
 20
165.4239154987233
 10
652.142772405338
 20
169.547221025122
 10
655.590352276904
 20
170.6674076297299
 10
649.2232116163057
 20
190.2634516197349
 10
645.7756317447377
 20
189.1432650151264
 10
644.435888565625
 20
193.2665705415222
 10
647.8834684371964
 20
194.3867571461325
 10
640.8464561870398
 20
216.0444538993342
  0
LWPOLYLINE
  5
15E0
330
153B
100
AcDbEntity
  8
0
100
AcDbPolyline
 90
       18
 70
     0
 43
0.0
 10
679.3808753855909
 20
97.44770631732638
 10
660.9577381354346
 20
84.06251360580882
 10
658.8270165958825
 20
86.99520021040723
 10
655.3195234167703
 20
84.44685724909294
 10
657.4502449563249
 20
81.51417064449356
 10
640.7808542957322
 20
69.40314941362291
 10
638.6501327561681
 20
72.33583601823344
 10
635.1426395770586
 20
69.78749305692105
 10
637.2733611166194
 20
66.85480645231158
 10
620.6039704560156
 20
54.74378522145639
 10
618.4732489164601
 20
57.67647182606137
 10
614.9657557373455
 20
55.12812886474771
 10
617.0964772769036
 20
52.1954422601429
 10
600.4270866163048
 20
40.08442102927995
 10
598.2963650767448
 20
43.01710763388689
 10
594.7888718976335
 20
40.46876467257539
 10
596.9195934371949
 20
37.53607806796435
 10
578.4964561870378
 20
24.15088535644759
  0
LWPOLYLINE
  5
15E1
330
153B
100
AcDbEntity
  8
0
100
AcDbPolyline
 90
       18
 70
     0
 43
0.0
 10
578.4964561869438
 20
24.15088535634561
 10
560.0733189368043
 20
37.53607806788568
 10
562.2040404763602
 20
40.4687646724816
 10
558.6965472972503
 20
43.01710763379981
 10
556.5658257576945
 20
40.08442102920117
 10
539.8964350971022
 20
52.19544226007307
 10
542.0271566366662
 20
55.12812886468265
 10
538.5196634575589
 20
57.67647182599896
 10
536.3889419179948
 20
54.7437852213921
 10
519.7195512574144
 20
66.85480645227824
 10
521.8502727969757
 20
69.78749305687933
 10
518.3427796178659
 20
72.3358360181997
 10
516.2120580783053
 20
69.403149413596
 10
499.5426674177187
 20
81.51417064447594
 10
501.6733889572805
 20
84.44685724908214
 10
498.1658957781738
 20
86.99520021039928
 10
496.0351742386084
 20
84.06251360579131
 10
477.6120369884698
 20
97.44770631733235
  0
ENDBLK
  5
15E3
330
153B
100
AcDbEntity
  8
0
100
AcDbBlockEnd
  0
ENDSEC
  0
SECTION
  2
ENTITIES
  0
LWPOLYLINE
  5
71E
330
1F
100
AcDbEntity
  8
innen
100
AcDbPolyline
 90
        5
 70
     1
 43
0.0
 10
149.6951136687125
 20
120.4516583739736
 10
160.702446276723
 20
128.4489536335944
 10
171.7097788847346
 20
120.451658373974
 10
167.5053519539492
 20
107.5117628258394
 10
153.899540599497
 20
107.5117628258396
  0
LWPOLYLINE
  5
71F
330
1F
100
AcDbEntity
  8
innen
100
AcDbPolyline
 90
        5
 70
     1
 43
0.0
 10
145.9289479691695
 20
130.9638202742886
 10
150.4664348484264
 20
130.9638202742882
 10
151.8685954058703
 20
135.2792267384096
 10
149.024364491479
 20
138.671876466566
 10
143.5812620261732
 20
134.7172310412299
  0
LWPOLYLINE
  5
720
330
1F
100
AcDbEntity
  8
innen
100
AcDbPolyline
 90
        5
 70
     1
 43
0.0
 10
147.8636478308354
 20
141.4131635843933
 10
148.1444931147246
 20
145.7349281179864
 10
139.7345968142266
 20
145.7349281179859
 10
137.135795936442
 20
137.7366414400314
 10
141.3328242235187
 20
136.6682424907768
  0
LWPOLYLINE
  5
721
330
1F
100
AcDbEntity
  8
innen
100
AcDbPolyline
 90
        5
 70
     1
 43
0.0
 10
140.7135203127515
 20
133.8334060458723
 10
143.3229284885608
 20
129.661561523119
 10
139.4754859287298
 20
125.2968369400091
 10
133.7032496366632
 20
127.1723502026105
 10
136.2377564662318
 20
134.9727601468318
  0
LWPOLYLINE
  5
722
330
1F
100
AcDbEntity
  8
innen
100
AcDbPolyline
 90
        5
 70
     1
 43
0.0
 10
152.3211280992259
 20
125.9441666716469
 10
150.7811096122658
 20
128.0638202742893
 10
145.7803817191894
 20
128.0638202742884
 10
142.4806189126835
 20
124.320410043722
 10
147.7359592054169
 20
122.6128464722079
  0
LWPOLYLINE
  5
723
330
1F
100
AcDbEntity
  8
innen
100
AcDbPolyline
 90
        5
 70
     1
 43
0.0
 10
150.7511129375051
 20
141.1261439665475
 10
153.9124213842507
 20
137.355278461849
 10
159.2524462767236
 20
139.6656397075032
 10
159.252446276724
 20
145.7349281179862
 10
151.0506098868017
 20
145.7349281179866
  0
LWPOLYLINE
  5
724
330
1F
100
AcDbEntity
  8
innen
100
AcDbPolyline
 90
        5
 70
     1
 43
0.0
 10
154.6672773829146
 20
127.648743903295
 10
153.1272588959535
 20
129.768397505937
 10
154.6725687991594
 20
134.5243723548679
 10
159.2524462767241
 20
136.5058558960614
 10
159.2524462767233
 20
130.9800641027341
  0
LWPOLYLINE
  5
725
330
1F
100
AcDbEntity
  8
innen
100
AcDbPolyline
 90
        5
 70
     1
 43
0.0
 10
188.0441395516965
 20
182.8327747131202
 10
190.3790496143648
 20
177.6545192949953
 10
184.5047521332096
 20
176.739444721549
 10
182.5500551752643
 20
178.9935621513731
 10
182.7790570940743
 20
183.3698809909057
  0
LWPOLYLINE
  5
726
330
1F
100
AcDbEntity
  8
innen
100
AcDbPolyline
 90
        5
 70
     1
 43
0.0
 10
173.0295939852679
 20
157.6390707309079
 10
170.8407350567926
 20
160.6224104823063
 10
172.2376581667597
 20
162.4390237952256
 10
177.8054643019004
 20
162.2718404618796
 10
179.1809632958207
 20
160.922645157654
  0
LWPOLYLINE
  5
727
330
1F
100
AcDbEntity
  8
innen
100
AcDbPolyline
 90
        5
 70
     1
 43
0.0
 10
155.5553460263692
 20
194.0890520153713
 10
156.3755725987741
 20
198.7111330699445
 10
165.0293199546748
 20
198.7111330699436
 10
165.8495465270773
 20
194.0890520153719
 10
160.7024462767235
 20
193.8680159744375
  0
LWPOLYLINE
  5
728
330
1F
100
AcDbEntity
  8
innen
100
AcDbPolyline
 90
        5
 70
     1
 43
0.0
 10
176.6906865871213
 20
192.8202975255856
 10
168.8120479021544
 20
193.9921688115824
 10
167.8142150198032
 20
199.6150840112645
 10
171.8310655105596
 20
203.1778424219527
 10
180.5743222302272
 20
196.8254945818462
  0
LWPOLYLINE
  5
729
330
1F
100
AcDbEntity
  8
innen
100
AcDbPolyline
 90
        5
 70
     1
 43
0.0
 10
162.1524462767229
 20
191.0276116689901
 10
167.4904188741866
 20
191.2568444937218
 10
174.2061091777999
 20
190.2579505290225
 10
171.0344874070788
 20
186.9870540425809
 10
162.1524462767234
 20
186.9870540425799
  0
LWPOLYLINE
  5
72A
330
1F
100
AcDbEntity
  8
innen
100
AcDbPolyline
 90
        5
 70
     1
 43
0.0
 10
155.7106238516002
 20
201.6111330699446
 10
151.9762766812431
 20
204.9233242556099
 10
160.7024462767233
 20
211.2632575733133
 10
169.4286158722048
 20
204.9233242556093
 10
165.6942687018474
 20
201.6111330699455
  0
LWPOLYLINE
  5
72B
330
1F
100
AcDbEntity
  8
innen
100
AcDbPolyline
 90
        5
 70
     1
 43
0.0
 10
182.5133726694162
 20
174.6093728943783
 10
182.7743791828061
 20
169.6804830125589
 10
175.8799818967854
 20
171.0102161546207
 10
174.861844140965
 20
176.3770144785078
 10
180.471036591543
 20
176.9645540041572
  0
LWPOLYLINE
  5
72C
330
1F
100
AcDbEntity
  8
innen
100
AcDbPolyline
 90
        5
 70
     1
 43
0.0
 10
185.4522431740157
 20
173.9520660571713
 10
192.2922491555197
 20
175.0175748394537
 10
197.1919752685538
 20
172.8958724564267
 10
193.3709649985688
 20
167.6367030028847
 10
185.7084088073693
 20
169.1145921493391
  0
LWPOLYLINE
  5
72D
330
1F
100
AcDbEntity
  8
innen
100
AcDbPolyline
 90
        5
 70
     1
 43
0.0
 10
190.7555583947637
 20
183.8745852578528
 10
193.9678889168238
 20
187.0944987823575
 10
202.8299288745553
 20
180.6558498681833
 10
198.9385232971334
 20
175.299789586199
 10
193.5746809710394
 20
177.6224657486856
  0
LWPOLYLINE
  5
72E
330
1F
100
AcDbEntity
  8
innen
100
AcDbPolyline
 90
        5
 70
     1
 43
0.0
 10
182.2388058831682
 20
186.3400441363397
 10
188.4832994744746
 20
185.7030252982715
 10
191.5929363880209
 20
188.8200027965287
 10
182.9442146130697
 20
195.1036669789152
 10
179.068256402891
 20
191.1063876663846
  0
LWPOLYLINE
  5
72F
330
1F
100
AcDbEntity
  8
innen
100
AcDbPolyline
 90
        5
 70
     1
 43
0.0
 10
173.2130841228661
 20
185.0679430400282
 10
177.0024396854197
 20
188.9759089613947
 10
179.9375489483061
 20
184.5635069054888
 10
179.6882038168583
 20
179.7984210844962
 10
174.3194520378816
 20
179.2360667168502
  0
LWPOLYLINE
  5
730
330
1F
100
AcDbEntity
  8
innen
100
AcDbPolyline
 90
        5
 70
     1
 43
0.0
 10
171.0835469715724
 20
155.3891144680471
 10
170.6709890459212
 20
152.5499281179852
 10
162.1524462767235
 20
152.5499281179856
 10
162.1524462767227
 20
157.6741831529101
 10
168.4144492938615
 20
159.0270031865458
  0
LWPOLYLINE
  5
731
330
1F
100
AcDbEntity
  8
innen
100
AcDbPolyline
 90
        5
 70
     1
 43
0.0
 10
168.2017688741456
 20
161.9479587319806
 10
169.6524162339483
 20
163.8344371554291
 10
167.1661255791923
 20
166.5782221145097
 10
162.1524462767242
 20
165.432752718308
 10
162.1524462767239
 20
160.6410853917224
  0
LWPOLYLINE
  5
732
330
1F
100
AcDbEntity
  8
innen
100
AcDbPolyline
 90
        5
 70
     1
 43
0.0
 10
170.4083966319613
 20
167.3189799574204
 10
172.2003413369229
 20
165.3414513367931
 10
177.9723176479933
 20
165.1681374288988
 10
180.7199809080948
 20
167.1232713309038
 10
174.6641071848187
 20
168.2912771274821
  0
LWPOLYLINE
  5
733
330
1F
100
AcDbEntity
  8
innen
100
AcDbPolyline
 90
        5
 70
     1
 43
0.0
 10
180.6675226273853
 20
163.5267080903803
 10
182.3605356468825
 20
161.8660705864667
 10
187.9995476769087
 20
160.243581314046
 10
191.4888938621513
 20
165.0462543176801
 10
184.6552995852201
 20
166.3642602886851
  0
LWPOLYLINE
  5
734
330
1F
100
AcDbEntity
  8
innen
100
AcDbPolyline
 90
        5
 70
     1
 43
0.0
 10
173.6014452330595
 20
152.5499281179858
 10
173.9333700398427
 20
154.8342046330527
 10
181.7711755035302
 20
159.0179914101236
 10
186.1861715038644
 20
157.7476831344562
 10
182.4097814342468
 20
152.549928117986
  0
LWPOLYLINE
  5
735
330
1F
100
AcDbEntity
  8
innen
100
AcDbPolyline
 90
        5
 70
     1
 43
0.0
 10
133.3607530017492
 20
182.8327747131192
 10
131.025842939083
 20
177.6545192949962
 10
136.9001404202372
 20
176.7394447215485
 10
138.8548373781831
 20
178.9935621513758
 10
138.6258354593739
 20
183.3698809909062
  0
LWPOLYLINE
  5
736
330
1F
100
AcDbEntity
  8
innen
100
AcDbPolyline
 90
        5
 70
     1
 43
0.0
 10
148.3752985681806
 20
157.6390707309073
 10
150.5641574966536
 20
160.622410482306
 10
149.1672343866889
 20
162.4390237952252
 10
143.5994282515475
 20
162.2718404618801
 10
142.2239292576274
 20
160.9226451576536
  0
LWPOLYLINE
  5
737
330
1F
100
AcDbEntity
  8
innen
100
AcDbPolyline
 90
        5
 70
     1
 43
0.0
 10
144.7142059663253
 20
192.8202975255863
 10
152.5928446512924
 20
193.9921688115842
 10
153.5906775336446
 20
199.6150840112634
 10
149.5738270428866
 20
203.177842421953
 10
140.8305703232213
 20
196.8254945818461
  0
LWPOLYLINE
  5
738
330
1F
100
AcDbEntity
  8
innen
100
AcDbPolyline
 90
        5
 70
     1
 43
0.0
 10
159.2524462767233
 20
191.0276116689897
 10
153.9144736792606
 20
191.2568444937218
 10
147.1987833756474
 20
190.2579505290227
 10
150.3704051463689
 20
186.9870540425803
 10
159.252446276724
 20
186.9870540425794
  0
LWPOLYLINE
  5
739
330
1F
100
AcDbEntity
  8
innen
100
AcDbPolyline
 90
        5
 70
     1
 43
0.0
 10
138.8915198840307
 20
174.6093728943784
 10
138.6305133706421
 20
169.6804830125599
 10
145.5249106566626
 20
171.0102161546224
 10
146.5430484124823
 20
176.3770144785059
 10
140.9338559619032
 20
176.9645540041583
  0
LWPOLYLINE
  5
73A
330
1F
100
AcDbEntity
  8
innen
100
AcDbPolyline
 90
        5
 70
     1
 43
0.0
 10
135.9526493794306
 20
173.9520660571718
 10
129.1126433979277
 20
175.0175748394524
 10
124.212917284894
 20
172.8958724564269
 10
128.0339275548772
 20
167.6367030028842
 10
135.6964837460797
 20
169.1145921493393
  0
LWPOLYLINE
  5
73B
330
1F
100
AcDbEntity
  8
innen
100
AcDbPolyline
 90
        5
 70
     1
 43
0.0
 10
130.6493341586841
 20
183.8745852578521
 10
127.437003636623
 20
187.094498782357
 10
118.5749636788921
 20
180.6558498681842
 10
122.4663692563126
 20
175.2997895861984
 10
127.8302115824097
 20
177.6224657486854
  0
LWPOLYLINE
  5
73C
330
1F
100
AcDbEntity
  8
innen
100
AcDbPolyline
 90
        5
 70
     1
 43
0.0
 10
139.1660866702793
 20
186.3400441363389
 10
132.9215930789735
 20
185.7030252982711
 10
129.8119561654283
 20
188.8200027965269
 10
138.4606779403778
 20
195.103666978916
 10
142.3366361505573
 20
191.1063876663853
  0
LWPOLYLINE
  5
73D
330
1F
100
AcDbEntity
  8
innen
100
AcDbPolyline
 90
        5
 70
     1
 43
0.0
 10
148.1918084305812
 20
185.0679430400281
 10
144.4024528680254
 20
188.9759089613953
 10
141.4673436051405
 20
184.5635069054894
 10
141.7166887365883
 20
179.7984210844965
 10
147.0854405155663
 20
179.2360667168506
  0
LWPOLYLINE
  5
73E
330
1F
100
AcDbEntity
  8
innen
100
AcDbPolyline
 90
        5
 70
     1
 43
0.0
 10
150.3213455818769
 20
155.3891144680466
 10
150.7339035075253
 20
152.5499281179866
 10
159.2524462767241
 20
152.5499281179852
 10
159.2524462767232
 20
157.6741831529104
 10
152.9904432595879
 20
159.0270031865464
  0
LWPOLYLINE
  5
73F
330
1F
100
AcDbEntity
  8
innen
100
AcDbPolyline
 90
        5
 70
     1
 43
0.0
 10
153.2031236793023
 20
161.9479587319816
 10
151.7524763195003
 20
163.8344371554293
 10
154.2387669742542
 20
166.5782221145106
 10
159.252446276722
 20
165.4327527183084
 10
159.2524462767229
 20
160.6410853917224
  0
LWPOLYLINE
  5
740
330
1F
100
AcDbEntity
  8
innen
100
AcDbPolyline
 90
        5
 70
     1
 43
0.0
 10
150.9964959214855
 20
167.31897995742
 10
149.2045512165249
 20
165.3414513367937
 10
143.4325749054553
 20
165.1681374288999
 10
140.6849116453531
 20
167.1232713309051
 10
146.7407853686289
 20
168.2912771274819
  0
LWPOLYLINE
  5
741
330
1F
100
AcDbEntity
  8
innen
100
AcDbPolyline
 90
        5
 70
     1
 43
0.0
 10
140.7373699260621
 20
163.5267080903803
 10
139.0443569065653
 20
161.8660705864683
 10
133.4053448765385
 20
160.2435813140454
 10
129.9159986912958
 20
165.0462543176801
 10
136.7495929682273
 20
166.364260288684
  0
LWPOLYLINE
  5
742
330
1F
100
AcDbEntity
  8
innen
100
AcDbPolyline
 90
        5
 70
     1
 43
0.0
 10
147.8034473203884
 20
152.5499281179863
 10
147.4715225136044
 20
154.8342046330526
 10
139.6337170499176
 20
159.0179914101237
 10
135.2187210495812
 20
157.7476831344555
 10
138.9951111192013
 20
152.5499281179862
  0
LWPOLYLINE
  5
743
330
1F
100
AcDbEntity
  8
innen
100
AcDbPolyline
 90
        5
 70
     1
 43
0.0
 10
169.536297147578
 20
135.2792267384107
 10
170.9384577050219
 20
130.9638202742883
 10
175.4759445842778
 20
130.963820274289
 10
177.8236305272742
 20
134.71723104123
 10
172.3805280619686
 20
138.6718764665657
  0
LWPOLYLINE
  5
744
330
1F
100
AcDbEntity
  8
innen
100
AcDbPolyline
 90
        5
 70
     1
 43
0.0
 10
180.0720683299282
 20
136.668242490777
 10
184.2690966170062
 20
137.7366414400311
 10
181.6702957392205
 20
145.7349281179862
 10
173.2603994387232
 20
145.7349281179876
 10
173.5412447226113
 20
141.4131635843939
  0
LWPOLYLINE
  5
745
330
1F
100
AcDbEntity
  8
innen
100
AcDbPolyline
 90
        5
 70
     1
 43
0.0
 10
170.6537796159446
 20
141.126143966547
 10
167.4924711691972
 20
137.3552784618483
 10
162.1524462767239
 20
139.6656397075014
 10
162.152446276725
 20
145.7349281179862
 10
170.354282666646
 20
145.7349281179861
  0
LWPOLYLINE
  5
746
330
1F
100
AcDbEntity
  8
innen
100
AcDbPolyline
 90
        5
 70
     1
 43
0.0
 10
166.7376151705344
 20
127.6487439032947
 10
168.2776336574935
 20
129.7683975059376
 10
166.7323237542873
 20
134.5243723548674
 10
162.152446276725
 20
136.5058558960614
 10
162.1524462767249
 20
130.9800641027352
  0
LWPOLYLINE
  5
747
330
1F
100
AcDbEntity
  8
innen
100
AcDbPolyline
 90
        5
 70
     1
 43
0.0
 10
180.6913722406956
 20
133.8334060458712
 10
178.0819640648864
 20
129.6615615231195
 10
181.9294066247187
 20
125.296836940008
 10
187.7016429167852
 20
127.1723502026093
 10
185.1671360872171
 20
134.9727601468315
  0
LWPOLYLINE
  5
748
330
1F
100
AcDbEntity
  8
innen
100
AcDbPolyline
 90
        5
 70
     1
 43
0.0
 10
169.0837644542217
 20
125.9441666716475
 10
170.6237829411804
 20
128.0638202742893
 10
175.6245108342585
 20
128.0638202742891
 10
178.9242736407663
 20
124.3204100437227
 10
173.6689333480307
 20
122.6128464722064
  0
LWPOLYLINE
  5
749
330
1F
100
AcDbEntity
  8
innen
100
AcDbPolyline
 90
        5
 70
     1
 43
0.0
 10
231.8809141804033
 20
111.2536877508858
 10
227.6776275116559
 20
107.4328873954094
 10
224.9920821239913
 20
112.7369026992025
 10
226.5318406152643
 20
115.2924905715712
 10
230.7647326496427
 20
116.4270536986625
  0
LWPOLYLINE
  5
74A
330
1F
100
AcDbEntity
  8
innen
100
AcDbPolyline
 90
        5
 70
     1
 43
0.0
 10
203.2805280956647
 20
117.7480864692947
 10
205.441458199366
 20
120.7517176996483
 10
207.6008331090216
 20
119.9845292590502
 10
209.1623790275723
 20
114.6375684615764
 10
208.3042706066002
 20
112.9124669025155
  0
LWPOLYLINE
  5
74B
330
1F
100
AcDbEntity
  8
innen
100
AcDbPolyline
 90
        5
 70
     1
 43
0.0
 10
232.5466807318704
 20
145.6307475195104
 10
237.1960049877746
 20
146.2789672882284
 10
239.8701599857769
 20
138.0487644750276
 10
235.7277636300919
 20
135.8403810532631
 10
233.927004413913
 20
140.6672603933687
  0
LWPOLYLINE
  5
74C
330
1F
100
AcDbEntity
  8
innen
100
AcDbPolyline
 90
        5
 70
     1
 43
0.0
 10
237.8712029219546
 20
125.1377774560574
 10
236.5510854985662
 20
132.9929362595224
 10
241.5904483216062
 20
135.6795080790868
 10
246.2201079895824
 20
132.9602091406248
 10
242.8804810950371
 20
122.6818944269699
  0
LWPOLYLINE
  5
74D
330
1F
100
AcDbEntity
  8
innen
100
AcDbPolyline
 90
        5
 70
     1
 43
0.0
 10
231.6736940321482
 20
138.4104952434622
 10
233.5412316519811
 20
133.4046184593503
 10
234.6664894705442
 20
126.7089422240087
 10
230.5755970261023
 20
128.7145711751234
 10
227.830895372085
 20
137.1618942701495
  0
LWPOLYLINE
  5
74E
330
1F
100
AcDbEntity
  8
innen
100
AcDbPolyline
 90
        5
 70
     1
 43
0.0
 10
239.7485884217664
 20
147.8075204109174
 10
241.7446926935724
 20
152.382618986383
 10
250.4708622890536
 20
146.0426856686792
 10
247.137762095176
 20
135.7844580742265
 10
242.8337043462974
 20
138.3125099197134
  0
LWPOLYLINE
  5
74F
330
1F
100
AcDbEntity
  8
innen
100
AcDbPolyline
 90
        5
 70
     1
 43
0.0
 10
222.3508933360248
 20
113.9725887208252
 10
217.7438959440977
 20
112.2012460385853
 10
216.8780613864389
 20
119.1691176422633
 10
221.6675680348486
 20
121.7958560768868
 10
223.9596871212469
 20
116.6427567439017
  0
LWPOLYLINE
  5
750
330
1F
100
AcDbEntity
  8
innen
100
AcDbPolyline
 90
        5
 70
     1
 43
0.0
 10
222.6339183154815
 20
110.9744377936613
 10
225.7609554759512
 20
104.7984658548344
 10
225.2571952356451
 20
99.48290731361155
 10
219.0746707474472
 20
101.4917312922693
 10
218.1123667671122
 20
109.2359481514462
  0
LWPOLYLINE
  5
751
330
1F
100
AcDbEntity
  8
innen
100
AcDbPolyline
 90
        5
 70
     1
 43
0.0
 10
233.7096093890903
 20
108.9969123550241
 10
237.7645938513446
 20
106.9368124790128
 10
234.3795957971518
 20
96.5188596942533
 10
228.0831693088717
 20
98.56469267617668
 10
228.6346471745362
 20
104.3837562794267
  0
LWPOLYLINE
  5
752
330
1F
100
AcDbEntity
  8
innen
100
AcDbPolyline
 90
        5
 70
     1
 43
0.0
 10
233.4225788581647
 20
117.8586940212343
 10
234.7463925821973
 20
111.7229780535602
 10
238.6717449956805
 20
109.7287366216652
 10
241.9752627544706
 20
119.8959188426594
 10
236.9758872604041
 20
122.3469469165025
  0
LWPOLYLINE
  5
753
330
1F
100
AcDbEntity
  8
innen
100
AcDbPolyline
 90
        5
 70
     1
 43
0.0
 10
229.4236374107011
 20
126.0495646583145
 10
234.3113091322334
 20
123.6533012411277
 10
231.0218640470286
 20
119.4983392293325
 10
226.4129462431865
 20
118.2629880430612
 10
224.2190799190833
 20
123.1951973503647
  0
LWPOLYLINE
  5
754
330
1F
100
AcDbEntity
  8
innen
100
AcDbPolyline
 90
        5
 70
     1
 43
0.0
 10
200.5393309314077
 20
118.9036124408621
 10
197.7116168420152
 20
118.4186215120354
 10
195.0792423590239
 20
126.5202371220192
 10
199.9526985011472
 20
128.1037190113231
 10
203.1743721606322
 20
122.5662446175384
  0
LWPOLYLINE
  5
755
330
1F
100
AcDbEntity
  8
innen
100
AcDbPolyline
 90
        5
 70
     1
 43
0.0
 10
205.886644101864
 20
123.6711406199511
 10
208.12906638636
 20
122.8744468879321
 10
209.9702548857307
 20
126.0869259978078
 10
207.3315366434471
 20
130.5012488590704
 10
202.7743902085795
 20
129.0205422237638
  0
LWPOLYLINE
  5
756
330
1F
100
AcDbEntity
  8
innen
100
AcDbPolyline
 90
        5
 70
     1
 43
0.0
 10
211.676674314902
 20
123.232249747651
 10
210.3496742009087
 20
120.9169191085224
 10
211.9684816506908
 20
115.3738864830747
 10
214.6769991306149
 20
113.3648730369681
 10
213.9164707582392
 20
119.4852848440225
  0
LWPOLYLINE
  5
757
330
1F
100
AcDbEntity
  8
innen
100
AcDbPolyline
 90
        5
 70
     1
 43
0.0
 10
211.2402537242118
 20
112.3033646640048
 10
210.1840633996339
 20
110.1800483894345
 10
210.3835349532415
 20
104.3156524944416
 10
216.0294156794796
 20
102.4811946439051
 10
215.1712170824833
 20
109.3876152544254
  0
LWPOLYLINE
  5
758
330
1F
100
AcDbEntity
  8
innen
100
AcDbPolyline
 90
        5
 70
     1
 43
0.0
 10
198.6171776051125
 20
115.6315920595405
 10
200.8922240759369
 20
116.0217930721346
 10
207.2932568399445
 20
109.8604583273986
 10
207.4494306708677
 20
105.2690007665861
 10
201.3391031834474
 20
107.2543665176823
  0
LWPOLYLINE
  5
759
330
1F
100
AcDbEntity
  8
innen
100
AcDbPolyline
 90
        5
 70
     1
 43
0.0
 10
214.9828184264935
 20
163.2606788622997
 10
209.336477978345
 20
163.8811413669489
 10
210.2814480940625
 20
158.0115788745261
 10
213.0292757430509
 20
156.8491121884221
 10
217.1206368081169
 20
158.4192628497675
  0
LWPOLYLINE
  5
75A
330
1F
100
AcDbEntity
  8
innen
100
AcDbPolyline
 90
        5
 70
     1
 43
0.0
 10
195.6619318274439
 20
141.1957147803824
 10
199.1756511455227
 20
140.0358889163815
 10
200.4716800935474
 20
141.9258061287773
 10
198.5921325778095
 20
147.1694419438923
 10
196.8839190271051
 20
148.0606949474806
  0
LWPOLYLINE
  5
75B
330
1F
100
AcDbEntity
  8
innen
100
AcDbPolyline
 90
        5
 70
     1
 43
0.0
 10
227.9899269898274
 20
155.5492177186509
 10
231.539076058828
 20
148.4183152003692
 10
237.1951335182536
 20
149.2068960900667
 10
239.3422430552162
 20
154.1281008200395
 10
230.5989863355494
 20
160.4804486601456
  0
LWPOLYLINE
  5
75C
330
1F
100
AcDbEntity
  8
innen
100
AcDbPolyline
 90
        5
 70
     1
 43
0.0
 10
230.7775447484621
 20
141.1685591407181
 10
229.346033872047
 20
146.3161096018482
 10
226.3207668250583
 20
152.394435415852
 10
224.1900444343815
 20
148.3672812624308
 10
226.9347460883996
 20
139.9199581674066
  0
LWPOLYLINE
  5
75D
330
1F
100
AcDbEntity
  8
innen
100
AcDbPolyline
 90
        5
 70
     1
 43
0.0
 10
208.8709994992201
 20
155.4594360652333
 10
204.1026912107325
 20
154.1845572737024
 10
207.4978285077782
 20
148.0385059477861
 10
212.9165788945139
 20
148.7286312880918
 10
211.7420263970156
 20
154.2448500176601
  0
LWPOLYLINE
  5
75E
330
1F
100
AcDbEntity
  8
innen
100
AcDbPolyline
 90
        5
 70
     1
 43
0.0
 10
207.3377026182979
 20
158.0513490259645
 10
206.2373835989459
 20
164.8858416075531
 10
202.7054260852188
 20
168.8901159620545
 10
198.8844158152338
 20
163.6309465085115
 10
202.6578320017656
 20
156.8001153734501
  0
LWPOLYLINE
  5
75F
330
1F
100
AcDbEntity
  8
innen
100
AcDbPolyline
 90
        5
 70
     1
 43
0.0
 10
215.1357646324303
 20
166.1613285846451
 10
217.2054196489536
 20
170.2114444596356
 10
208.3433796912219
 20
176.6500933738097
 10
204.4519741138
 20
171.2940330918261
 10
208.3184888472868
 20
166.9104623018502
  0
LWPOLYLINE
  5
760
330
1F
100
AcDbEntity
  8
innen
100
AcDbPolyline
 90
        5
 70
     1
 43
0.0
 10
220.1123766274424
 20
158.8232843032058
 10
217.5768810695152
 20
164.5653009774792
 10
219.5803721777561
 20
168.4859404454645
 10
228.2290939527074
 20
162.202276263077
 10
225.6251923715058
 20
157.2807937115635
  0
LWPOLYLINE
  5
761
330
1F
100
AcDbEntity
  8
innen
100
AcDbPolyline
 90
        5
 70
     1
 43
0.0
 10
221.6916380008429
 20
149.8462119514794
 10
224.2373591892603
 20
154.6577311349477
 10
219.1339168188967
 20
156.0856787041631
 10
214.6791027812174
 20
154.3760448937502
 10
215.8033075336867
 20
149.0962814735197
  0
LWPOLYLINE
  5
762
330
1F
100
AcDbEntity
  8
innen
100
AcDbPolyline
 90
        5
 70
     1
 43
0.0
 10
194.1234578613564
 20
138.6496393651657
 10
191.5507185923453
 20
137.3799166292606
 10
194.1830930753362
 20
129.2783010192756
 10
199.0565492174596
 20
130.8617829085787
 10
198.4080921747005
 20
137.2353460638106
  0
LWPOLYLINE
  5
763
330
1F
100
AcDbEntity
  8
innen
100
AcDbPolyline
 90
        5
 70
     1
 43
0.0
 10
201.2518078440577
 20
137.935699868106
 10
202.5976807545053
 20
139.8983013848593
 10
205.9754813844267
 20
138.3815746375173
 10
206.4353873597605
 20
133.2593127563278
 10
201.8782409248928
 20
131.7786061210212
  0
LWPOLYLINE
  5
764
330
1F
100
AcDbEntity
  8
innen
100
AcDbPolyline
 90
        5
 70
     1
 43
0.0
 10
205.6780671022457
 20
141.694064412023
 10
203.2435842546263
 20
142.7872151498807
 10
201.2951141619088
 20
148.2231338895253
 10
202.3054823574498
 20
151.4404865396277
 10
205.2876897776361
 20
146.041942013917
  0
LWPOLYLINE
  5
765
330
1F
100
AcDbEntity
  8
innen
100
AcDbPolyline
 90
        5
 70
     1
 43
0.0
 10
198.9011579515151
 20
150.2791965872595
 10
196.7986280374924
 20
151.3761824414194
 10
193.5129984935741
 20
156.2378248196729
 10
197.0023446788179
 20
161.0404978233073
 10
200.3675396102925
 20
154.9486497002403
  0
LWPOLYLINE
  5
766
330
1F
100
AcDbEntity
  8
innen
100
AcDbPolyline
 90
        5
 70
     1
 43
0.0
 10
190.6451578292466
 20
140.1669460817555
 10
192.7150634877704
 20
141.1885055951741
 10
194.2720660780096
 20
149.9355627698242
 10
191.6996223205308
 20
153.7419266400833
 10
187.9232322509118
 20
148.5441716236128
  0
LWPOLYLINE
  5
767
330
1F
100
AcDbEntity
  8
innen
100
AcDbPolyline
 90
        5
 70
     1
 43
0.0
 10
180.9355646740134
 20
114.160837404878
 10
177.264660676941
 20
111.4937695347812
 10
178.6668212343853
 20
107.1783630706601
 10
182.9620018564595
 20
106.1054487702129
 10
185.041081993958
 20
112.5041994818601
  0
LWPOLYLINE
  5
768
330
1F
100
AcDbEntity
  8
innen
100
AcDbPolyline
 90
        5
 70
     1
 43
0.0
 10
185.5123295007311
 20
104.5699530406452
 10
187.8253903500013
 20
100.9084953712367
 10
194.6291393780361
 20
105.8517083899785
 10
192.0303385002503
 20
113.8499950679337
 10
188.0068821441959
 20
112.2473966440539
  0
LWPOLYLINE
  5
769
330
1F
100
AcDbEntity
  8
innen
100
AcDbPolyline
 90
        5
 70
     1
 43
0.0
 10
186.8416344777136
 20
114.9048452096928
 10
182.2784302328908
 20
116.7461666835353
 10
182.8255559084054
 20
122.5387730427507
 10
188.5977922004708
 20
124.4142863053536
 10
191.1322990300393
 20
116.6138763611314
  0
LWPOLYLINE
  5
76A
330
1F
100
AcDbEntity
  8
innen
100
AcDbPolyline
 90
        5
 70
     1
 43
0.0
 10
172.8137039584416
 20
114.4645932648473
 10
175.3055062136449
 20
113.6549576330142
 10
179.35118006339
 20
116.5943117392931
 10
179.820422924452
 20
121.5623461464656
 10
174.5650826317183
 20
119.8547825749508
  0
LWPOLYLINE
  5
76B
330
1F
100
AcDbEntity
  8
innen
100
AcDbPolyline
 90
        5
 70
     1
 43
0.0
 10
183.0076152602835
 20
103.1049473829944
 10
178.2336038703634
 20
104.2974711768523
 10
175.2714292496306
 20
99.28956178730277
 10
178.8388674692243
 20
94.37940431945731
 10
185.4742924937533
 20
99.20032279116975
  0
LWPOLYLINE
  5
76C
330
1F
100
AcDbEntity
  8
innen
100
AcDbPolyline
 90
        5
 70
     1
 43
0.0
 10
171.9175546747543
 20
111.7065293675914
 10
174.4093569299576
 20
110.8968937357582
 10
175.9546668331635
 20
106.1409188868272
 10
173.4141549248337
 20
101.8458805893076
 10
170.1661760014776
 20
106.3163400574879
  0
LWPOLYLINE
  5
76D
330
1F
100
AcDbEntity
  8
innen
100
AcDbPolyline
 90
        5
 70
     1
 43
0.0
 10
177.3514654333664
 20
47.44328327372178
 10
172.4187813449547
 20
50.26015420793368
 10
176.633320498202
 20
54.45329051597413
 10
179.5396405382201
 20
53.77861325250942
 10
181.9267097673665
 20
50.10349298790323
  0
LWPOLYLINE
  5
76E
330
1F
100
AcDbEntity
  8
innen
100
AcDbPolyline
 90
        5
 70
     1
 43
0.0
 10
174.6900003080588
 20
76.65074640040419
 10
178.2143874879346
 20
75.52375283903278
 10
178.1520314665885
 20
73.23299099404974
 10
173.5493137841046
 20
70.09557081804365
 10
171.6434746199926
 20
70.37859472472321
  0
LWPOLYLINE
  5
76F
330
1F
100
AcDbEntity
  8
innen
100
AcDbPolyline
 90
        5
 70
     1
 43
0.0
 10
210.2517253160748
 20
57.433197341767
 10
212.3049391585399
 20
53.21173813644001
 10
205.3039104825882
 20
48.12519306357877
 10
201.9235421674977
 20
51.38241810330848
 10
205.9577120166991
 20
54.5866296360227
  0
LWPOLYLINE
  5
770
330
1F
100
AcDbEntity
  8
innen
100
AcDbPolyline
 90
        5
 70
     1
 43
0.0
 10
192.4071204426477
 20
46.03659980190405
 10
199.4698816908194
 20
49.7194836434758
 10
203.582212079453
 20
45.75696114150517
 10
202.4266486198497
 20
40.51358356127388
 10
191.6193889696101
 20
40.51358356127448
  0
LWPOLYLINE
  5
771
330
1F
100
AcDbEntity
  8
innen
100
AcDbPolyline
 90
        5
 70
     1
 43
0.0
 10
203.1150896135653
 20
56.03227637420198
 10
198.9313187404296
 20
52.70924155339458
 10
192.9110760147942
 20
49.56998002698703
 10
193.5543872105304
 20
54.08042337404035
 10
200.7401094297241
 20
59.30115616071807
  0
LWPOLYLINE
  5
772
330
1F
100
AcDbEntity
  8
innen
100
AcDbPolyline
 90
        5
 70
     1
 43
0.0
 10
214.5474712270396
 20
51.25643591987244
 10
219.5154786824613
 20
50.77181115572574
 10
216.182378488583
 20
40.51358356127533
 10
205.3962396853776
 20
40.5135835612735
 10
206.470532877385
 20
45.38819671277128
  0
LWPOLYLINE
  5
773
330
1F
100
AcDbEntity
  8
innen
100
AcDbPolyline
 90
        5
 70
     1
 43
0.0
 10
176.9923555203277
 20
57.34705830392927
 10
173.8840680326456
 20
61.18119820240187
 10
180.2433501333981
 20
64.1578465406573
 10
184.2215657872774
 20
60.41446184892607
 10
180.0289808383565
 20
56.64213178808649
  0
LWPOLYLINE
  5
774
330
1F
100
AcDbEntity
  8
innen
100
AcDbPolyline
 90
        5
 70
     1
 43
0.0
 10
174.2284040726972
 20
56.15140596474877
 10
169.3210133404473
 20
51.26893661070581
 10
164.1099462767233
 20
50.10544314606808
 10
164.1099462767248
 20
56.60613409583502
 10
171.177765900567
 20
59.91443418460252
  0
LWPOLYLINE
  5
775
330
1F
100
AcDbEntity
  8
innen
100
AcDbPolyline
 90
        5
 70
     1
 43
0.0
 10
175.770242384334
 20
45.00670882937317
 10
175.0640300837989
 20
40.51358356127458
 10
164.109946276725
 20
40.51358356127479
 10
164.1099462767241
 20
47.13403816139193
 10
169.8146206678439
 20
48.40774108841255
  0
LWPOLYLINE
  5
776
330
1F
100
AcDbEntity
  8
innen
100
AcDbPolyline
 90
        5
 70
     1
 43
0.0
 10
184.1096002720087
 20
48.0181322214851
 10
178.6832685569271
 20
44.8630700462135
 10
177.9996328527358
 20
40.51358356127402
 10
188.690040885058
 20
40.51358356127381
 10
189.4762151173808
 20
46.02568153082038
  0
LWPOLYLINE
  5
777
330
1F
100
AcDbEntity
  8
innen
100
AcDbPolyline
 90
        5
 70
     1
 43
0.0
 10
190.6638402987554
 20
54.35246976896505
 10
189.8952319859619
 20
48.96353160977817
 10
184.9271338562926
 20
50.80802592042956
 10
182.3280111336108
 20
54.80962272026364
 10
186.3408789575212
 20
58.4202500794533
  0
LWPOLYLINE
  5
778
330
1F
100
AcDbEntity
  8
innen
100
AcDbPolyline
 90
        5
 70
     1
 43
0.0
 10
174.9418943043796
 20
79.61485698857751
 10
173.6068288123195
 20
82.15430246038798
 10
180.4984746799092
 20
87.1613762711444
 10
183.5104362184234
 20
83.01576686437885
 10
179.2395370235092
 20
78.24059944355324
  0
LWPOLYLINE
  5
779
330
1F
100
AcDbEntity
  8
innen
100
AcDbPolyline
 90
        5
 70
     1
 43
0.0
 10
181.1284936896384
 20
76.00250718164374
 10
181.0637395187847
 20
73.6236449531826
 10
184.6879472458467
 20
72.86528127215342
 10
188.0708089878489
 20
76.73895223393112
 10
185.2543375993899
 20
80.615492532532
  0
LWPOLYLINE
  5
77A
330
1F
100
AcDbEntity
  8
innen
100
AcDbPolyline
 90
        5
 70
     1
 43
0.0
 10
182.5003013993676
 20
70.36023647976964
 10
179.8882255208844
 20
70.90681207022142
 10
175.1167272350202
 20
67.6543434148412
 10
174.0430198366343
 20
64.45757091928544
 10
179.6288611763746
 20
67.07218764461332
  0
LWPOLYLINE
  5
77B
330
1F
100
AcDbEntity
  8
innen
100
AcDbPolyline
 90
        5
 70
     1
 43
0.0
 10
171.9714526455063
 20
67.39808590597539
 10
169.62567810683
 20
67.74644178333733
 10
164.1099462767242
 20
65.7445350691699
 10
164.1099462767244
 20
59.80810476297457
 10
170.4131446516155
 20
62.75850146987473
  0
LWPOLYLINE
  5
77C
330
1F
100
AcDbEntity
  8
innen
100
AcDbPolyline
 90
        5
 70
     1
 43
0.0
 10
171.2360399556517
 20
80.43182353109854
 10
172.3101711938238
 20
78.38870450426035
 10
168.4284215413953
 20
70.39700343887715
 10
164.1099462767236
 20
68.82963488405939
 10
164.1099462767233
 20
75.25441341480689
  0
LWPOLYLINE
  5
77D
330
1F
100
AcDbEntity
  8
innen
100
AcDbPolyline
 90
        5
 70
     1
 43
0.0
 10
221.5912544622494
 20
79.58537143318826
 10
220.4365342159078
 20
85.14709376793131
 10
215.1462603846172
 20
82.4345792219689
 10
214.8898143089744
 20
79.46201786934178
 10
217.6474164262424
 20
76.05610550598162
  0
LWPOLYLINE
  5
77E
330
1F
100
AcDbEntity
  8
innen
100
AcDbPolyline
 90
        5
 70
     1
 43
0.0
 10
194.6357442848239
 20
91.1421776522306
 10
194.6184833218489
 20
87.44202609584838
 10
196.8163963720984
 20
86.79344585611346
 10
201.2225782590424
 20
90.20137434782663
 10
201.5423432185843
 20
92.10139430084449
  0
LWPOLYLINE
  5
77F
330
1F
100
AcDbEntity
  8
innen
100
AcDbPolyline
 90
        5
 70
     1
 43
0.0
 10
218.2766366851723
 20
64.83190353102258
 10
212.5914927559883
 20
59.25289211826686
 10
215.0892956258833
 20
54.1173467112982
 10
220.4331327880527
 20
53.59606008933016
 10
223.7727596825991
 20
63.87437480298338
  0
LWPOLYLINE
  5
780
330
1F
100
AcDbEntity
  8
innen
100
AcDbPolyline
 90
        5
 70
     1
 43
0.0
 10
205.4612388972525
 20
57.73685360584909
 10
209.9144891178255
 20
60.68898192490161
 10
214.7604615613546
 20
65.44448783734887
 10
210.2719809326062
 20
66.2264661790439
 10
203.0862587134112
 20
61.00573339236593
  0
LWPOLYLINE
  5
781
330
1F
100
AcDbEntity
  8
innen
100
AcDbPolyline
 90
        5
 70
     1
 43
0.0
 10
212.2831757498261
 20
82.98734004885148
 10
209.5972056720928
 20
87.1283115059699
 10
204.8011186321209
 20
82.00010974789073
 10
207.1319527918533
 20
77.05983234081089
 10
212.0152318774101
 20
79.88150347941291
  0
LWPOLYLINE
  5
782
330
1F
100
AcDbEntity
  8
innen
100
AcDbPolyline
 90
        5
 70
     1
 43
0.0
 10
214.274416667173
 20
85.24653719167308
 10
220.43438809625
 20
88.40497712067285
 10
223.1512444189798
 20
93.00145715506032
 10
216.9687199307819
 20
95.01028113371807
 10
211.6382631965566
 20
89.31070617438397
  0
LWPOLYLINE
  5
783
330
1F
100
AcDbEntity
  8
innen
100
AcDbPolyline
 90
        5
 70
     1
 43
0.0
 10
224.3971992590337
 20
80.33626100632469
 10
228.8886469262923
 20
79.61945675093811
 10
232.2736449804862
 20
90.03740953570079
 10
225.9772184922064
 20
92.08324251762546
 10
223.0030136894079
 20
87.05137061484223
  0
LWPOLYLINE
  5
784
330
1F
100
AcDbEntity
  8
innen
100
AcDbPolyline
 90
        5
 70
     1
 43
0.0
 10
218.9561621091758
 20
73.33564135095489
 10
223.6336332673596
 20
77.52142165769334
 10
227.9814957819568
 20
76.82753260828699
 10
224.6779780231649
 20
66.66035038729193
 10
219.1927201324455
 20
67.61598620794832
  0
LWPOLYLINE
  5
785
330
1F
100
AcDbEntity
  8
innen
100
AcDbPolyline
 90
        5
 70
     1
 43
0.0
 10
210.9064775547546
 20
69.05960661443233
 10
216.2691753376326
 20
68.12532308597174
 10
216.0501837560069
 20
73.42024527380383
 10
213.0476121357142
 20
77.12871929164706
 10
208.3736571040768
 20
74.42800041303344
  0
LWPOLYLINE
  5
786
330
1F
100
AcDbEntity
  8
innen
100
AcDbPolyline
 90
        5
 70
     1
 43
0.0
 10
191.738868069279
 20
91.8185727705665
 10
189.7362698311857
 20
93.87302731355007
 10
182.8446239635956
 20
88.86595350279316
 10
185.8565855021109
 20
84.72034409602725
 10
191.7178200265777
 20
87.30660272176883
  0
LWPOLYLINE
  5
787
330
1F
100
AcDbEntity
  8
innen
100
AcDbPolyline
 90
        5
 70
     1
 43
0.0
 10
193.2626525448659
 20
84.81848963153864
 10
195.545095107863
 20
84.1449656518159
 10
195.1464000496195
 20
80.46379201123261
 10
190.4169582715366
 20
78.44352946558085
 10
187.6004868830771
 20
82.32006976418049
  0
LWPOLYLINE
  5
788
330
1F
100
AcDbEntity
  8
innen
100
AcDbPolyline
 90
        5
 70
     1
 43
0.0
 10
198.204858967262
 20
81.77026543635445
 10
198.492210527365
 20
84.42339836780351
 10
203.059966095073
 20
87.9562948168805
 10
206.4320712411721
 20
87.98959420643271
 10
202.2193030650724
 20
83.48510440318506
  0
LWPOLYLINE
  5
789
330
1F
100
AcDbEntity
  8
innen
100
AcDbPolyline
 90
        5
 70
     1
 43
0.0
 10
204.2756247688636
 20
90.86844078560011
 10
204.6692028391322
 20
93.2070528325614
 10
208.277584136575
 20
97.83420233589072
 10
213.923464862816
 20
95.99974448535329
 10
209.1696754323031
 20
90.91676931999405
  0
LWPOLYLINE
  5
78A
330
1F
100
AcDbEntity
  8
innen
100
AcDbPolyline
 90
        5
 70
     1
 43
0.0
 10
192.1070586878536
 20
95.59550624283956
 10
193.7182555451104
 20
93.94258822859668
 10
202.5183415301358
 20
95.16478008699441
 10
205.3434798542039
 20
98.78755060803445
 10
199.2331523667822
 20
100.7729163591311
  0
LWPOLYLINE
  5
78B
330
1F
100
AcDbEntity
  8
innen
100
AcDbPolyline
 90
        5
 70
     1
 43
0.0
 10
164.3733502737956
 20
96.7935485449825
 10
160.7024462767247
 20
99.4606164150802
 10
157.0315422796516
 20
96.79354854498149
 10
157.3384239489164
 20
92.37704027334867
 10
164.0664686045306
 20
92.37704027334776
  0
LWPOLYLINE
  5
78C
330
1F
100
AcDbEntity
  8
innen
100
AcDbPolyline
 90
        5
 70
     1
 43
0.0
 10
156.6661753128718
 20
89.47704027334872
 10
153.8986972486893
 20
86.14573603603031
 10
160.7024462767233
 20
81.20252301728952
 10
167.5061953047581
 20
86.14573603603145
 10
164.7387172405745
 20
89.47704027334886
  0
LWPOLYLINE
  5
78D
330
1F
100
AcDbEntity
  8
innen
100
AcDbPolyline
 90
        5
 70
     1
 43
0.0
 10
166.906019684046
 20
91.40645342811396
 10
167.2471128098856
 20
96.31531818786515
 10
172.9252799659436
 20
97.58498455565497
 10
176.4927181855351
 20
92.6748270878094
 10
169.8572931610077
 20
87.85390861609785
  0
LWPOLYLINE
  5
78E
330
1F
100
AcDbEntity
  8
innen
100
AcDbPolyline
 90
        5
 70
     1
 43
0.0
 10
162.1524462767237
 20
104.6117628258382
 10
162.1524462767234
 20
101.9917268842207
 10
166.1981201264685
 20
99.05237277794203
 10
171.0680056411463
 20
100.1413033576598
 10
167.8200267177896
 20
104.6117628258383
  0
LWPOLYLINE
  5
78F
330
1F
100
AcDbEntity
  8
innen
100
AcDbPolyline
 90
        5
 70
     1
 43
0.0
 10
154.4988728694011
 20
91.40645342811409
 10
154.1577797435633
 20
96.3153181878629
 10
148.4796125875025
 20
97.58498455565393
 10
144.9121743679107
 20
92.67482708780895
 10
151.5475993924402
 20
87.8539086160989
  0
LWPOLYLINE
  5
790
330
1F
100
AcDbEntity
  8
innen
100
AcDbPolyline
 90
        5
 70
     1
 43
0.0
 10
159.2524462767242
 20
104.6117628258385
 10
159.2524462767224
 20
101.9917268842208
 10
155.2067724269786
 20
99.05237277794133
 10
150.3368869123007
 20
100.141303357661
 10
153.5848658356585
 20
104.6117628258403
  0
LWPOLYLINE
  5
791
330
1F
100
AcDbEntity
  8
innen
100
AcDbPolyline
 90
        5
 70
     1
 43
0.0
 10
99.81363809119806
 20
79.5853714331895
 10
100.9683583375409
 20
85.14709376793154
 10
106.2586321688288
 20
82.43457922196919
 10
106.5150782444727
 20
79.4620178693425
 10
103.7574761272055
 20
76.05610550598064
  0
LWPOLYLINE
  5
792
330
1F
100
AcDbEntity
  8
innen
100
AcDbPolyline
 90
        5
 70
     1
 43
0.0
 10
126.769148268625
 20
91.1421776522309
 10
126.7864092315988
 20
87.44202609584927
 10
124.5884961813501
 20
86.79344585611368
 10
120.182314294405
 20
90.20137434782578
 10
119.8625493348642
 20
92.10139430084406
  0
LWPOLYLINE
  5
793
330
1F
100
AcDbEntity
  8
innen
100
AcDbPolyline
 90
        5
 70
     1
 43
0.0
 10
119.4813503859491
 20
51.38241810330862
 10
116.1009820708594
 20
48.1251930635767
 10
109.0999533949085
 20
53.21173813644097
 10
111.1531672373729
 20
57.43319734176517
 10
115.4471805367479
 20
54.58662963602335
  0
LWPOLYLINE
  5
794
330
1F
100
AcDbEntity
  8
innen
100
AcDbPolyline
 90
        5
 70
     1
 43
0.0
 10
103.1282558682755
 20
64.83190353102165
 10
108.813399797458
 20
59.25289211826644
 10
106.3155969275644
 20
54.1173467112975
 10
100.9717597653948
 20
53.59606008932825
 10
97.63213287084841
 20
63.87437480298325
  0
LWPOLYLINE
  5
795
330
1F
100
AcDbEntity
  8
innen
100
AcDbPolyline
 90
        5
 70
     1
 43
0.0
 10
115.9436536561936
 20
57.73685360584871
 10
111.4904034356215
 20
60.68898192490271
 10
106.6444309920916
 20
65.44448783734909
 10
111.1329116208414
 20
66.22646617904365
 10
118.3186338400361
 20
61.0057333923653
  0
LWPOLYLINE
  5
796
330
1F
100
AcDbEntity
  8
innen
100
AcDbPolyline
 90
        5
 70
     1
 43
0.0
 10
114.9343596760615
 20
45.38819671277085
 10
116.0086528680689
 20
40.51358356127385
 10
105.2225140648653
 20
40.51358356127354
 10
101.8894138709861
 20
50.77181115572645
 10
106.8574213264081
 20
51.25643591987224
  0
LWPOLYLINE
  5
797
330
1F
100
AcDbEntity
  8
innen
100
AcDbPolyline
 90
        5
 70
     1
 43
0.0
 10
109.1217168036209
 20
82.98734004885195
 10
111.8076868813539
 20
87.12831150596931
 10
116.6037739213281
 20
82.00010974788898
 10
114.2729397615939
 20
77.05983234081
 10
109.3896606760389
 20
79.88150347941274
  0
LWPOLYLINE
  5
798
330
1F
100
AcDbEntity
  8
innen
100
AcDbPolyline
 90
        5
 70
     1
 43
0.0
 10
107.1304758862751
 20
85.246537191673
 10
100.9705044571975
 20
88.40497712067284
 10
98.25364813446662
 20
93.00145715506068
 10
104.4361726226646
 20
95.01028113371764
 10
109.7666293568916
 20
89.31070617438384
  0
LWPOLYLINE
  5
799
330
1F
100
AcDbEntity
  8
innen
100
AcDbPolyline
 90
        5
 70
     1
 43
0.0
 10
97.00769329441353
 20
80.33626100632442
 10
92.51624562715574
 20
79.61945675093875
 10
89.13124757296147
 20
90.03740953569972
 10
95.42767406124007
 20
92.08324251762403
 10
98.40187886403969
 20
87.05137061484236
  0
LWPOLYLINE
  5
79A
330
1F
100
AcDbEntity
  8
innen
100
AcDbPolyline
 90
        5
 70
     1
 43
0.0
 10
102.4487304442715
 20
73.3356413509555
 10
97.77125928608838
 20
77.52142165769375
 10
93.4233967714907
 20
76.82753260828575
 10
96.72691453028074
 20
66.66035038729319
 10
102.2121724210023
 20
67.61598620794821
  0
LWPOLYLINE
  5
79B
330
1F
100
AcDbEntity
  8
innen
100
AcDbPolyline
 90
        5
 70
     1
 43
0.0
 10
110.4984149986921
 20
69.05960661443326
 10
105.1357172158156
 20
68.12532308597112
 10
105.3547087974392
 20
73.42024527380532
 10
108.3572804177327
 20
77.12871929164768
 10
113.0312354493712
 20
74.42800041303197
  0
LWPOLYLINE
  5
79C
330
1F
100
AcDbEntity
  8
innen
100
AcDbPolyline
 90
        5
 70
     1
 43
0.0
 10
129.6660244841687
 20
91.81857277056689
 10
131.6686227222593
 20
93.87302731354983
 10
138.5602685898502
 20
88.86595350279377
 10
135.5483070513367
 20
84.72034409602848
 10
129.6870725268699
 20
87.30660272176854
  0
LWPOLYLINE
  5
79D
330
1F
100
AcDbEntity
  8
innen
100
AcDbPolyline
 90
        5
 70
     1
 43
0.0
 10
128.1422400085811
 20
84.81848963153888
 10
125.8597974455854
 20
84.14496565181601
 10
126.2584925038283
 20
80.46379201123153
 10
130.987934281909
 20
78.44352946558011
 10
133.8044056703691
 20
82.32006976418006
  0
LWPOLYLINE
  5
79E
330
1F
100
AcDbEntity
  8
innen
100
AcDbPolyline
 90
        5
 70
     1
 43
0.0
 10
123.200033586186
 20
81.77026543635232
 10
122.9126820260824
 20
84.42339836780366
 10
118.3449264583746
 20
87.95629481687948
 10
114.9728213122763
 20
87.98959420643195
 10
119.1855894883754
 20
83.48510440318638
  0
LWPOLYLINE
  5
79F
330
1F
100
AcDbEntity
  8
innen
100
AcDbPolyline
 90
        5
 70
     1
 43
0.0
 10
117.1292677845835
 20
90.86844078559997
 10
116.7356897143158
 20
93.20705283256049
 10
113.1273084168719
 20
97.83420233588998
 10
107.4814276906336
 20
95.99974448535242
 10
112.2352171211454
 20
90.91676931999334
  0
LWPOLYLINE
  5
7A0
330
1F
100
AcDbEntity
  8
innen
100
AcDbPolyline
 90
        5
 70
     1
 43
0.0
 10
129.2978338655947
 20
95.59550624283904
 10
127.6866370083379
 20
93.94258822859648
 10
118.8865510233114
 20
95.16478008699598
 10
116.0614126992445
 20
98.78755060803407
 10
122.1717401866661
 20
100.7729163591302
  0
LWPOLYLINE
  5
7A1
330
1F
100
AcDbEntity
  8
innen
100
AcDbPolyline
 90
        5
 70
     1
 43
0.0
 10
144.0534271200798
 20
47.4432832737229
 10
148.9861112084928
 20
50.26015420793388
 10
144.7715720552444
 20
54.45329051597605
 10
141.8652520152267
 20
53.77861325250967
 10
139.4781827860819
 20
50.10349298790252
  0
LWPOLYLINE
  5
7A2
330
1F
100
AcDbEntity
  8
innen
100
AcDbPolyline
 90
        5
 70
     1
 43
0.0
 10
146.7148922453867
 20
76.65074640040389
 10
143.1905050655138
 20
75.52375283903305
 10
143.252861086859
 20
73.23299099405008
 10
147.8555787693416
 20
70.09557081804448
 10
149.7614179334557
 20
70.37859472472266
  0
LWPOLYLINE
  5
7A3
330
1F
100
AcDbEntity
  8
innen
100
AcDbPolyline
 90
        5
 70
     1
 43
0.0
 10
128.9977721107995
 20
46.03659980190288
 10
121.9350108626279
 20
49.71948364347707
 10
117.8226804739954
 20
45.75696114150416
 10
118.9782439335967
 20
40.51358356127314
 10
129.7855035838363
 20
40.51358356127462
  0
LWPOLYLINE
  5
7A4
330
1F
100
AcDbEntity
  8
innen
100
AcDbPolyline
 90
        5
 70
     1
 43
0.0
 10
118.2898029398818
 20
56.0322763742
 10
122.4735738130181
 20
52.70924155339469
 10
128.4938165386542
 20
49.56998002698634
 10
127.8505053429172
 20
54.08042337403946
 10
120.664783123723
 20
59.30115616071834
  0
LWPOLYLINE
  5
7A5
330
1F
100
AcDbEntity
  8
innen
100
AcDbPolyline
 90
        5
 70
     1
 43
0.0
 10
144.41253703312
 20
57.34705830392909
 10
147.5208245208007
 20
61.18119820240133
 10
141.1615424200502
 20
64.15784654065749
 10
137.1833267661683
 20
60.41446184892451
 10
141.3759117150894
 20
56.64213178808551
  0
LWPOLYLINE
  5
7A6
330
1F
100
AcDbEntity
  8
innen
100
AcDbPolyline
 90
        5
 70
     1
 43
0.0
 10
147.1764884807496
 20
56.15140596474792
 10
152.0838792129991
 20
51.268936610706
 10
157.2949462767236
 20
50.10544314606702
 10
157.2949462767231
 20
56.60613409583426
 10
150.2271266528812
 20
59.91443418460106
  0
LWPOLYLINE
  5
7A7
330
1F
100
AcDbEntity
  8
innen
100
AcDbPolyline
 90
        5
 70
     1
 43
0.0
 10
145.6346501691133
 20
45.00670882937312
 10
146.340862469648
 20
40.51358356127434
 10
157.2949462767231
 20
40.51358356127372
 10
157.2949462767231
 20
47.13403816139265
 10
151.5902718856045
 20
48.40774108841193
  0
LWPOLYLINE
  5
7A8
330
1F
100
AcDbEntity
  8
innen
100
AcDbPolyline
 90
        5
 70
     1
 43
0.0
 10
137.2952922814386
 20
48.01813222148446
 10
142.7216239965198
 20
44.86307004621337
 10
143.4052597007103
 20
40.51358356127307
 10
132.7148516683885
 20
40.51358356127385
 10
131.9286774360671
 20
46.02568153081791
  0
LWPOLYLINE
  5
7A9
330
1F
100
AcDbEntity
  8
innen
100
AcDbPolyline
 90
        5
 70
     1
 43
0.0
 10
130.7410522546914
 20
54.35246976896411
 10
131.5096605674869
 20
48.96353160977739
 10
136.477758697154
 20
50.80802592042867
 10
139.076881419836
 20
54.8096227202639
 10
135.0640135959265
 20
58.42025007945274
  0
LWPOLYLINE
  5
7AA
330
1F
100
AcDbEntity
  8
innen
100
AcDbPolyline
 90
        5
 70
     1
 43
0.0
 10
146.4629982490688
 20
79.61485698857669
 10
147.7980637411277
 20
82.15430246038748
 10
140.906417873538
 20
87.16137627114384
 10
137.8944563350237
 20
83.01576686438015
 10
142.1653555299393
 20
78.24059944355294
  0
LWPOLYLINE
  5
7AB
330
1F
100
AcDbEntity
  8
innen
100
AcDbPolyline
 90
        5
 70
     1
 43
0.0
 10
140.2763988638094
 20
76.00250718164155
 10
140.3411530346628
 20
73.62364495318135
 10
136.7169453076013
 20
72.86528127215267
 10
133.3340835655984
 20
76.73895223393096
 10
136.1505549540575
 20
80.61549253253196
  0
LWPOLYLINE
  5
7AC
330
1F
100
AcDbEntity
  8
innen
100
AcDbPolyline
 90
        5
 70
     1
 43
0.0
 10
138.90459115408
 20
70.36023647976904
 10
141.5166670325642
 20
70.90681207022111
 10
146.288165318425
 20
67.65434341483912
 10
147.3618727168126
 20
64.4575709192837
 10
141.7760313770734
 20
67.07218764461264
  0
LWPOLYLINE
  5
7AD
330
1F
100
AcDbEntity
  8
innen
100
AcDbPolyline
 90
        5
 70
     1
 43
0.0
 10
149.4334399079405
 20
67.39808590597507
 10
151.7792144466168
 20
67.74644178333635
 10
157.2949462767238
 20
65.7445350691687
 10
157.2949462767243
 20
59.80810476297325
 10
150.9917479018326
 20
62.75850146987531
  0
LWPOLYLINE
  5
7AE
330
1F
100
AcDbEntity
  8
innen
100
AcDbPolyline
 90
        5
 70
     1
 43
0.0
 10
150.1688525977948
 20
80.43182353109742
 10
149.0947213596232
 20
78.38870450426145
 10
152.9764710120504
 20
70.39700343887573
 10
157.2949462767237
 20
68.829634884058
 10
157.2949462767235
 20
75.25441341480622
  0
LWPOLYLINE
  5
7AF
330
1F
100
AcDbEntity
  8
innen
100
AcDbPolyline
 90
        5
 70
     1
 43
0.0
 10
142.7380713190628
 20
107.1783630706603
 10
144.1402318765065
 20
111.4937695347811
 10
140.4693278794343
 20
114.1608374048792
 10
136.3638105594908
 20
112.50419948186
 10
138.4428906969893
 20
106.1054487702136
  0
LWPOLYLINE
  5
7B0
330
1F
100
AcDbEntity
  8
innen
100
AcDbPolyline
 90
        5
 70
     1
 43
0.0
 10
133.3980104092524
 20
112.2473966440532
 10
129.374554053196
 20
113.8499950679355
 10
126.7757531754122
 20
105.8517083899785
 10
133.5795022034458
 20
100.9084953712364
 10
135.892563052716
 20
104.5699530406461
  0
LWPOLYLINE
  5
7B1
330
1F
100
AcDbEntity
  8
innen
100
AcDbPolyline
 90
        5
 70
     1
 43
0.0
 10
138.3972772931637
 20
103.1049473829946
 10
143.1712886830848
 20
104.2974711768517
 10
146.1334633038161
 20
99.28956178730348
 10
142.5660250842244
 20
94.37940431945779
 10
135.9306000596943
 20
99.20032279117012
  0
LWPOLYLINE
  5
7B2
330
1F
100
AcDbEntity
  8
innen
100
AcDbPolyline
 90
        5
 70
     1
 43
0.0
 10
149.4873378786937
 20
111.7065293675903
 10
146.9955356234885
 20
110.896893735757
 10
145.4502257202835
 20
106.1409188868293
 10
147.9907376286141
 20
101.8458805893091
 10
151.2387165519682
 20
106.3163400574877
  0
LWPOLYLINE
  5
7B3
330
1F
100
AcDbEntity
  8
innen
100
AcDbPolyline
 90
        5
 70
     1
 43
0.0
 10
134.5632580757336
 20
114.9048452096915
 10
139.1264623205555
 20
116.7461666835363
 10
138.5793366450408
 20
122.5387730427523
 10
132.8071003529759
 20
124.4142863053545
 10
130.2725935234056
 20
116.6138763611332
  0
LWPOLYLINE
  5
7B4
330
1F
100
AcDbEntity
  8
innen
100
AcDbPolyline
 90
        5
 70
     1
 43
0.0
 10
148.591188595005
 20
114.4645932648469
 10
146.0993863398012
 20
113.6549576330146
 10
142.0537124900579
 20
116.5943117392927
 10
141.5844696289946
 20
121.5623461464665
 10
146.8398099217291
 20
119.8547825749506
  0
LWPOLYLINE
  5
7B5
330
1F
100
AcDbEntity
  8
innen
100
AcDbPolyline
 90
        5
 70
     1
 43
0.0
 10
106.4220741269527
 20
163.2606788623007
 10
112.0684145751016
 20
163.8811413669486
 10
111.1234444593851
 20
158.0115788745252
 10
108.3756168103957
 20
156.8491121884217
 10
104.2842557453317
 20
158.4192628497681
  0
LWPOLYLINE
  5
7B6
330
1F
100
AcDbEntity
  8
innen
100
AcDbPolyline
 90
        5
 70
     1
 43
0.0
 10
125.7429607260039
 20
141.1957147803827
 10
122.2292414079253
 20
140.0358889163826
 10
120.9332124599002
 20
141.9258061287783
 10
122.8127599756381
 20
147.1694419438928
 10
124.5209735263443
 20
148.0606949474811
  0
LWPOLYLINE
  5
7B7
330
1F
100
AcDbEntity
  8
innen
100
AcDbPolyline
 90
        5
 70
     1
 43
0.0
 10
85.67712892335733
 20
135.8403810532623
 10
81.53473256767073
 20
138.0487644750279
 10
84.20888756567291
 20
146.2789672882288
 10
88.85821182157883
 20
145.6307475195084
 10
87.47788813953473
 20
140.6672603933683
  0
LWPOLYLINE
  5
7B8
330
1F
100
AcDbEntity
  8
innen
100
AcDbPolyline
 90
        5
 70
     1
 43
0.0
 10
93.41496556361965
 20
155.5492177186493
 10
89.86581649461863
 20
148.4183152003704
 10
84.20975903519454
 20
149.2068960900673
 10
82.06264949823093
 20
154.1281008200395
 10
90.80590621789774
 20
160.4804486601468
  0
LWPOLYLINE
  5
7B9
330
1F
100
AcDbEntity
  8
innen
100
AcDbPolyline
 90
        5
 70
     1
 43
0.0
 10
90.62734780498653
 20
141.1685591407174
 10
92.05885868140088
 20
146.3161096018494
 10
95.08412572839023
 20
152.3944354158504
 10
97.2148481190659
 20
148.3672812624305
 10
94.4701464650492
 20
139.9199581674056
  0
LWPOLYLINE
  5
7BA
330
1F
100
AcDbEntity
  8
innen
100
AcDbPolyline
 90
        5
 70
     1
 43
0.0
 10
78.57118820714956
 20
138.3125099197127
 10
74.26713045827218
 20
135.7844580742278
 10
70.93403026439428
 20
146.0426856686793
 10
79.66019985987461
 20
152.3826189863832
 10
81.65630413168137
 20
147.8075204109161
  0
LWPOLYLINE
  5
7BB
330
1F
100
AcDbEntity
  8
innen
100
AcDbPolyline
 90
        5
 70
     1
 43
0.0
 10
112.5338930542292
 20
155.4594360652332
 10
117.3022013427149
 20
154.1845572737015
 10
113.9070640456692
 20
148.0385059477866
 10
108.4883136589334
 20
148.7286312880909
 10
109.662866156433
 20
154.24485001766
  0
LWPOLYLINE
  5
7BC
330
1F
100
AcDbEntity
  8
innen
100
AcDbPolyline
 90
        5
 70
     1
 43
0.0
 10
114.0671899351488
 20
158.0513490259632
 10
115.1675089545017
 20
164.8858416075533
 10
118.6994664682279
 20
168.8901159620541
 10
122.5204767382119
 20
163.6309465085126
 10
118.7470605516827
 20
156.8001153734494
  0
LWPOLYLINE
  5
7BD
330
1F
100
AcDbEntity
  8
innen
100
AcDbPolyline
 90
        5
 70
     1
 43
0.0
 10
106.2691279210169
 20
166.161328584644
 10
104.1994729044961
 20
170.2114444596351
 10
113.061512862226
 20
176.6500933738102
 10
116.9529184396485
 20
171.294033091825
 10
113.0864037061603
 20
166.910462301852
  0
LWPOLYLINE
  5
7BE
330
1F
100
AcDbEntity
  8
innen
100
AcDbPolyline
 90
        5
 70
     1
 43
0.0
 10
101.2925159260062
 20
158.8232843032048
 10
103.8280114839316
 20
164.5653009774799
 10
101.8245203756904
 20
168.4859404454638
 10
93.17579860073991
 20
162.2022762630772
 10
95.77970018194091
 20
157.2807937115633
  0
LWPOLYLINE
  5
7BF
330
1F
100
AcDbEntity
  8
innen
100
AcDbPolyline
 90
        5
 70
     1
 43
0.0
 10
99.71325455260543
 20
149.8462119514793
 10
97.16753336418766
 20
154.6577311349459
 10
102.2709757345505
 20
156.0856787041617
 10
106.7257897722306
 20
154.3760448937499
 10
105.6015850197621
 20
149.0962814735197
  0
LWPOLYLINE
  5
7C0
330
1F
100
AcDbEntity
  8
innen
100
AcDbPolyline
 90
        5
 70
     1
 43
0.0
 10
127.281434692092
 20
138.6496393651645
 10
129.8541739611034
 20
137.3799166292597
 10
127.2217994781121
 20
129.2783010192771
 10
122.3483433359887
 20
130.8617829085788
 10
122.9968003787469
 20
137.235346063811
  0
LWPOLYLINE
  5
7C1
330
1F
100
AcDbEntity
  8
innen
100
AcDbPolyline
 90
        5
 70
     1
 43
0.0
 10
120.1530847093892
 20
137.9356998681046
 10
118.8072117989429
 20
139.8983013848581
 10
115.4294111690203
 20
138.3815746375159
 10
114.9695051936866
 20
133.2593127563288
 10
119.5266516285555
 20
131.7786061210209
  0
LWPOLYLINE
  5
7C2
330
1F
100
AcDbEntity
  8
innen
100
AcDbPolyline
 90
        5
 70
     1
 43
0.0
 10
115.7268254512016
 20
141.6940644120234
 10
118.1613082988205
 20
142.7872151498795
 10
120.1097783915394
 20
148.2231338895248
 10
119.0994101959984
 20
151.4404865396272
 10
116.1172027758119
 20
146.0419420139162
  0
LWPOLYLINE
  5
7C3
330
1F
100
AcDbEntity
  8
innen
100
AcDbPolyline
 90
        5
 70
     1
 43
0.0
 10
122.5037346019318
 20
150.279196587259
 10
124.6062645159556
 20
151.3761824414201
 10
127.8918940598729
 20
156.2378248196725
 10
124.4025478746301
 20
161.0404978233072
 10
121.0373529431558
 20
154.948649700242
  0
LWPOLYLINE
  5
7C4
330
1F
100
AcDbEntity
  8
innen
100
AcDbPolyline
 90
        5
 70
     1
 43
0.0
 10
130.7597347242004
 20
140.166946081755
 10
128.6898290656786
 20
141.1885055951736
 10
127.1328264754378
 20
149.9355627698241
 10
129.7052702329177
 20
153.7419266400839
 10
133.4816603025355
 20
148.5441716236133
  0
LWPOLYLINE
  5
7C5
330
1F
100
AcDbEntity
  8
innen
100
AcDbPolyline
 90
        5
 70
     1
 43
0.0
 10
89.52397837304612
 20
111.2536877508861
 10
93.72726504179136
 20
107.4328873954102
 10
96.41281042945619
 20
112.736902699203
 10
94.87305193818416
 20
115.2924905715712
 10
90.64015990380592
 20
116.4270536986629
  0
LWPOLYLINE
  5
7C6
330
1F
100
AcDbEntity
  8
innen
100
AcDbPolyline
 90
        5
 70
     1
 43
0.0
 10
118.1243644577833
 20
117.7480864692954
 10
115.9634343540804
 20
120.7517176996476
 10
113.8040594444263
 20
119.9845292590509
 10
112.2425135258763
 20
114.6375684615759
 10
113.1006219468475
 20
112.9124669025158
  0
LWPOLYLINE
  5
7C7
330
1F
100
AcDbEntity
  8
innen
100
AcDbPolyline
 90
        5
 70
     1
 43
0.0
 10
83.53368963149191
 20
125.137777456058
 10
84.85380705488255
 20
132.9929362595235
 10
79.81444423184229
 20
135.6795080790875
 10
75.1847845638642
 20
132.9602091406241
 10
78.52441145841121
 20
122.681894426971
  0
LWPOLYLINE
  5
7C8
330
1F
100
AcDbEntity
  8
innen
100
AcDbPolyline
 90
        5
 70
     1
 43
0.0
 10
89.73119852129791
 20
138.4104952434619
 10
87.86366090146626
 20
133.4046184593504
 10
86.73840308290414
 20
126.7089422240071
 10
90.82929552734456
 20
128.714571175123
 10
93.57399718136185
 20
137.1618942701497
  0
LWPOLYLINE
  5
7C9
330
1F
100
AcDbEntity
  8
innen
100
AcDbPolyline
 90
        5
 70
     1
 43
0.0
 10
99.053999217423
 20
113.9725887208247
 10
103.6609966093494
 20
112.2012460385856
 10
104.5268311670089
 20
119.1691176422636
 10
99.73732451860087
 20
121.7958560768857
 10
97.4452054322008
 20
116.6427567439022
  0
LWPOLYLINE
  5
7CA
330
1F
100
AcDbEntity
  8
innen
100
AcDbPolyline
 90
        5
 70
     1
 43
0.0
 10
98.77097423796569
 20
110.974437793661
 10
95.64393707749606
 20
104.7984658548351
 10
96.14769731780189
 20
99.48290731361112
 10
102.3302218060008
 20
101.4917312922699
 10
103.2925257863383
 20
109.2359481514462
  0
LWPOLYLINE
  5
7CB
330
1F
100
AcDbEntity
  8
innen
100
AcDbPolyline
 90
        5
 70
     1
 43
0.0
 10
87.69528316435765
 20
108.996912355025
 10
83.64029870210419
 20
106.9368124790154
 10
87.0252967562965
 20
96.51885969425366
 10
93.32172324457646
 20
98.56469267617686
 10
92.77024537890996
 20
104.3837562794279
  0
LWPOLYLINE
  5
7CC
330
1F
100
AcDbEntity
  8
innen
100
AcDbPolyline
 90
        5
 70
     1
 43
0.0
 10
87.98231369528153
 20
117.8586940212354
 10
86.65849997125048
 20
111.7229780535604
 10
82.73314755776735
 20
109.7287366216669
 10
79.42962979897725
 20
119.8959188426602
 10
84.42900529304326
 20
122.3469469165037
  0
LWPOLYLINE
  5
7CD
330
1F
100
AcDbEntity
  8
innen
100
AcDbPolyline
 90
        5
 70
     1
 43
0.0
 10
91.98125514274851
 20
126.0495646583139
 10
87.0935834212153
 20
123.653301241127
 10
90.38302850641888
 20
119.498339229333
 10
94.99194631026282
 20
118.2629880430603
 10
97.18581263436376
 20
123.195197350365
  0
LWPOLYLINE
  5
7CE
330
1F
100
AcDbEntity
  8
innen
100
AcDbPolyline
 90
        5
 70
     1
 43
0.0
 10
120.8655616220411
 20
118.9036124408627
 10
123.6932757114311
 20
118.4186215120357
 10
126.3256501944243
 20
126.5202371220198
 10
121.4521940523013
 20
128.1037190113229
 10
118.2305203928163
 20
122.566244617539
  0
LWPOLYLINE
  5
7CF
330
1F
100
AcDbEntity
  8
innen
100
AcDbPolyline
 90
        5
 70
     1
 43
0.0
 10
115.5182484515827
 20
123.6711406199504
 10
113.2758261670882
 20
122.8744468879311
 10
111.4346376677161
 20
126.086925997808
 10
114.0733559099983
 20
130.5012488590697
 10
118.6305023448682
 20
129.0205422237649
  0
LWPOLYLINE
  5
7D0
330
1F
100
AcDbEntity
  8
innen
100
AcDbPolyline
 90
        5
 70
     1
 43
0.0
 10
109.7282182385457
 20
123.2322497476516
 10
111.0552183525386
 20
120.9169191085211
 10
109.4364109027561
 20
115.3738864830749
 10
106.7278934228332
 20
113.3648730369691
 10
107.4884217952086
 20
119.4852848440226
  0
LWPOLYLINE
  5
7D1
330
1F
100
AcDbEntity
  8
innen
100
AcDbPolyline
 90
        5
 70
     1
 43
0.0
 10
110.1646388292362
 20
112.3033646640049
 10
111.2208291538138
 20
110.1800483894328
 10
111.0213576002081
 20
104.3156524944422
 10
105.3754768739679
 20
102.4811946439045
 10
106.2336754709647
 20
109.3876152544273
  0
LWPOLYLINE
  5
7D2
330
1F
100
AcDbEntity
  8
innen
100
AcDbPolyline
 90
        5
 70
     1
 43
0.0
 10
122.7877149483342
 20
115.6315920595405
 10
120.5126684775107
 20
116.0217930721352
 10
114.1116357135033
 20
109.8604583273999
 10
113.9554618825806
 20
105.2690007665863
 10
120.0657893699995
 20
107.2543665176834
  0
LWPOLYLINE
  5
7D3
330
1F
100
AcDbEntity
  8
innen
100
AcDbPolyline
 90
        5
 70
     1
 43
0.0
 10
93.76876559273882
 20
128.376732668657
 10
99.79150584818429
 20
146.9128212015242
 10
113.1311903463744
 20
145.2138954996873
 10
112.0073653392485
 20
132.6971501128853
 10
105.5594005236548
 20
121.9103226153522
  0
LWPOLYLINE
  5
7D4
330
1F
100
AcDbEntity
  8
innen
100
AcDbPolyline
 90
        5
 70
     1
 43
0.0
 10
150.9574478380026
 20
184.0870540425806
 10
170.447444715447
 20
184.0870540425801
 10
172.9538595655539
 20
170.8752632612088
 10
160.7024462767248
 20
168.0761973186255
 10
148.4510329878941
 20
170.8752632612075
  0
LWPOLYLINE
  5
7D5
330
1F
100
AcDbEntity
  8
innen
100
AcDbPolyline
 90
        5
 70
     1
 43
0.0
 10
221.6133867052638
 20
146.9128212015228
 10
227.6361269607078
 20
128.3767326686553
 10
215.845492029791
 20
121.9103226153525
 10
209.3975272141996
 20
132.6971501128849
 10
208.2737022070733
 20
145.2138954996857
  0
LWPOLYLINE
  5
7D6
330
1F
100
AcDbEntity
  8
innen
100
AcDbPolyline
 90
        5
 70
     1
 43
0.0
 10
208.0924761870045
 20
68.2275604261221
 10
192.3247374928367
 20
56.7716276943348
 10
182.5313095064806
 20
65.98695727757097
 10
190.7976613810108
 20
75.4526492444114
 10
202.3545126180302
 20
80.38935737940076
  0
LWPOLYLINE
  5
7D7
330
1F
100
AcDbEntity
  8
innen
100
AcDbPolyline
 90
        5
 70
     1
 43
0.0
 10
129.0801550606105
 20
56.7716276943341
 10
113.3124163664439
 20
68.22756042612441
 10
119.0503799354166
 20
80.38935737940062
 10
130.6072311724358
 20
75.45264924441152
 10
138.8735830469666
 20
65.98695727757249
  0
LWPOLYLINE
  5
123E
330
1F
100
AcDbEntity
  8
innen
100
AcDbPolyline
 90
        5
 70
     1
 43
0.0
 10
335.111602392793
 20
206.565778199704
 10
340.0442864812062
 20
203.7489072654924
 10
335.8297473279572
 20
199.5557709574521
 10
332.9234272879405
 20
200.2304482209154
 10
330.5363580587953
 20
203.9055684855238
  0
LWPOLYLINE
  5
123F
330
1F
100
AcDbEntity
  8
innen
100
AcDbPolyline
 90
        5
 70
     1
 43
0.0
 10
337.7730675181018
 20
177.3583150730223
 10
334.2486803382261
 20
178.4853086343915
 10
334.3110363595724
 20
180.7760704793762
 10
338.9137540420563
 20
183.9134906553822
 10
340.8195932061695
 20
183.6304667487024
  0
LWPOLYLINE
  5
1240
330
1F
100
AcDbEntity
  8
innen
100
AcDbPolyline
 90
        5
 70
     1
 43
0.0
 10
302.2113425100868
 20
196.5758641316595
 10
300.1581286676217
 20
200.7973233369857
 10
307.1591573435732
 20
205.8838684098483
 10
310.5395256586623
 20
202.626643370118
 10
306.505355809461
 20
199.4224318374039
  0
LWPOLYLINE
  5
1241
330
1F
100
AcDbEntity
  8
innen
100
AcDbPolyline
 90
        5
 70
     1
 43
0.0
 10
320.0559473835132
 20
207.9724616715224
 10
312.9931861353413
 20
204.2895778299493
 10
308.8808557467086
 20
208.2521003319227
 10
310.0364192063104
 20
213.4954779121523
 10
320.843678856551
 20
213.4954779121528
  0
LWPOLYLINE
  5
1242
330
1F
100
AcDbEntity
  8
innen
100
AcDbPolyline
 90
        5
 70
     1
 43
0.0
 10
309.3479782125942
 20
197.9767850992249
 10
313.5317490857315
 20
201.2998199200319
 10
319.5519918113679
 20
204.439081446439
 10
318.9086806156306
 20
199.9286380993868
 10
311.7229583964364
 20
194.707905312708
  0
LWPOLYLINE
  5
1243
330
1F
100
AcDbEntity
  8
innen
100
AcDbPolyline
 90
        5
 70
     1
 43
0.0
 10
297.9155965991214
 20
202.752625553554
 10
292.9475891436994
 20
203.2372503177
 10
296.2806893375771
 20
213.4954779121523
 10
307.0668281407836
 20
213.4954779121528
 10
305.9925349487749
 20
208.6208647606558
  0
LWPOLYLINE
  5
1244
330
1F
100
AcDbEntity
  8
innen
100
AcDbPolyline
 90
        5
 70
     1
 43
0.0
 10
335.4707123058337
 20
196.662003169496
 10
338.5789997935157
 20
192.8278632710242
 10
332.219717692764
 20
189.8512149327676
 10
328.2415020388817
 20
193.5945996245018
 10
332.4340869878034
 20
197.3669296853392
  0
LWPOLYLINE
  5
1245
330
1F
100
AcDbEntity
  8
innen
100
AcDbPolyline
 90
        5
 70
     1
 43
0.0
 10
338.2346637534632
 20
197.8576555086775
 10
343.1420544857126
 20
202.7401248627201
 10
348.3531215494369
 20
203.9036183273593
 10
348.3531215494369
 20
197.4029273775908
 10
341.2853019255946
 20
194.0946272888252
  0
LWPOLYLINE
  5
1246
330
1F
100
AcDbEntity
  8
innen
100
AcDbPolyline
 90
        5
 70
     1
 43
0.0
 10
336.6928254418262
 20
209.0023526440544
 10
337.3990377423613
 20
213.4954779121524
 10
348.3531215494364
 20
213.4954779121528
 10
348.3531215494366
 20
206.8750233120336
 10
342.6484471583179
 20
205.6013203850147
  0
LWPOLYLINE
  5
1247
330
1F
100
AcDbEntity
  8
innen
100
AcDbPolyline
 90
        5
 70
     1
 43
0.0
 10
328.3534675541518
 20
205.9909292519422
 10
333.7797992692331
 20
209.1459914272129
 10
334.4634349734247
 20
213.495477912154
 10
323.7730269411032
 20
213.4954779121528
 10
322.9868527087808
 20
207.9833799426071
  0
LWPOLYLINE
  5
1248
330
1F
100
AcDbEntity
  8
innen
100
AcDbPolyline
 90
        5
 70
     1
 43
0.0
 10
321.7992275274046
 20
199.6565917044625
 10
322.567835840199
 20
205.0455298636475
 10
327.5359339698678
 20
203.2010355529964
 10
330.1350566925493
 20
199.1994387531623
 10
326.1221888686411
 20
195.5888113939743
  0
LWPOLYLINE
  5
1249
330
1F
100
AcDbEntity
  8
innen
100
AcDbPolyline
 90
        5
 70
     1
 43
0.0
 10
337.5211735217823
 20
174.3942044848496
 10
338.8562390138428
 20
171.8547590130379
 10
331.9645931462518
 20
166.8476852022812
 10
328.952631607737
 20
170.9932946090461
 10
333.2235308026527
 20
175.7684620298734
  0
LWPOLYLINE
  5
124A
330
1F
100
AcDbEntity
  8
innen
100
AcDbPolyline
 90
        5
 70
     1
 43
0.0
 10
331.3345741365233
 20
178.0065542917835
 10
331.3993283073778
 20
180.385416520244
 10
327.775120580315
 20
181.1437802012723
 10
324.3922588383122
 20
177.2701092394941
 10
327.2087302267706
 20
173.3935689408951
  0
LWPOLYLINE
  5
124B
330
1F
100
AcDbEntity
  8
innen
100
AcDbPolyline
 90
        5
 70
     1
 43
0.0
 10
329.9627664267922
 20
183.6488249936561
 10
332.5748423052773
 20
183.1022494032057
 10
337.3463405911403
 20
186.3547180585865
 10
338.4200479895267
 20
189.5514905541406
 10
332.8342066497868
 20
186.9368738288136
  0
LWPOLYLINE
  5
124C
330
1F
100
AcDbEntity
  8
innen
100
AcDbPolyline
 90
        5
 70
     1
 43
0.0
 10
340.4916151806539
 20
186.6109755674512
 10
342.8373897193293
 20
186.2626196900883
 10
348.353121549437
 20
188.2645264042583
 10
348.3531215494364
 20
194.2009567104526
 10
342.0499231745454
 20
191.2505600035528
  0
LWPOLYLINE
  5
124D
330
1F
100
AcDbEntity
  8
innen
100
AcDbPolyline
 90
        5
 70
     1
 43
0.0
 10
341.2270278705086
 20
173.5772379423276
 10
340.1528966323364
 20
175.6203569691655
 10
344.0346462847658
 20
183.6120580345499
 10
348.353121549436
 20
185.1794265893665
 10
348.3531215494371
 20
178.7546480586195
  0
LWPOLYLINE
  5
124E
330
1F
100
AcDbEntity
  8
innen
100
AcDbPolyline
 90
        5
 70
     1
 43
0.0
 10
290.8718133639118
 20
174.4236900402356
 10
292.026533610254
 20
168.8619677054954
 10
297.3168074415422
 20
171.5744822514571
 10
297.5732535171855
 20
174.5470436040857
 10
294.8156513999187
 20
177.9529559674463
  0
LWPOLYLINE
  5
124F
330
1F
100
AcDbEntity
  8
innen
100
AcDbPolyline
 90
        5
 70
     1
 43
0.0
 10
317.8273235413382
 20
162.866883821196
 10
317.8445845043121
 20
166.567035377577
 10
315.6466714540635
 20
167.2156156173126
 10
311.2404895671184
 20
163.8076871256006
 10
310.9207246075779
 20
161.9076671725811
  0
LWPOLYLINE
  5
1250
330
1F
100
AcDbEntity
  8
innen
100
AcDbPolyline
 90
        5
 70
     1
 43
0.0
 10
294.1864311409877
 20
189.1771579424029
 10
299.8715750701714
 20
194.7561693551598
 10
297.3737722002778
 20
199.8917147621287
 10
292.0299350381069
 20
200.4130013840976
 10
288.6903081435615
 20
190.1346866704437
  0
LWPOLYLINE
  5
1251
330
1F
100
AcDbEntity
  8
innen
100
AcDbPolyline
 90
        5
 70
     1
 43
0.0
 10
307.0018289289073
 20
196.2722078675766
 10
302.5485787083334
 20
193.3200795485235
 10
297.7026062648054
 20
188.5645736360759
 10
302.1910868935548
 20
187.7825952943826
 10
309.3768091127498
 20
193.0033280810597
  0
LWPOLYLINE
  5
1252
330
1F
100
AcDbEntity
  8
innen
100
AcDbPolyline
 90
        5
 70
     1
 43
0.0
 10
300.1798920763347
 20
171.0217214245731
 10
302.8658621540672
 20
166.8807499674571
 10
307.6619491940415
 20
172.0089517255374
 10
305.3311150343077
 20
176.9492291326151
 10
300.4478359487521
 20
174.1275579940142
  0
LWPOLYLINE
  5
1253
330
1F
100
AcDbEntity
  8
innen
100
AcDbPolyline
 90
        5
 70
     1
 43
0.0
 10
298.1886511589869
 20
168.7625242817528
 10
292.0286797299122
 20
165.6040843527538
 10
289.3118234071814
 20
161.0076043183669
 10
295.4943478953784
 20
158.9987803397074
 10
300.8248046296048
 20
164.6983552990431
  0
LWPOLYLINE
  5
1254
330
1F
100
AcDbEntity
  8
innen
100
AcDbPolyline
 90
        5
 70
     1
 43
0.0
 10
288.0658685671269
 20
173.6728004671019
 10
283.5744208998691
 20
174.3896047224876
 10
280.1894228456747
 20
163.9716519377272
 10
286.485849333954
 20
161.9258189558004
 10
289.4600541367531
 20
166.957690858584
  0
LWPOLYLINE
  5
1255
330
1F
100
AcDbEntity
  8
innen
100
AcDbPolyline
 90
        5
 70
     1
 43
0.0
 10
293.5069057169848
 20
180.6734201224708
 10
288.8294345588018
 20
176.4876398157326
 10
284.4815720442058
 20
177.1815288651396
 10
287.785089802994
 20
187.3487110861337
 10
293.2703476937156
 20
186.3930752654784
  0
LWPOLYLINE
  5
1256
330
1F
100
AcDbEntity
  8
innen
100
AcDbPolyline
 90
        5
 70
     1
 43
0.0
 10
301.5565902714055
 20
184.9494548589931
 10
296.1938924885274
 20
185.8837383874546
 10
296.4128840701526
 20
180.588816199621
 10
299.4154556904462
 20
176.8803421817786
 10
304.0894107220846
 20
179.5810610603943
  0
LWPOLYLINE
  5
1257
330
1F
100
AcDbEntity
  8
innen
100
AcDbPolyline
 90
        5
 70
     1
 43
0.0
 10
320.7241997568837
 20
162.1904887028599
 10
322.7267979949727
 20
160.1360341598764
 10
329.6184438625651
 20
165.1431079706331
 10
326.6064823240499
 20
169.2887173773984
 10
320.7452477995832
 20
166.7024587516578
  0
LWPOLYLINE
  5
1258
330
1F
100
AcDbEntity
  8
innen
100
AcDbPolyline
 90
        5
 70
     1
 43
0.0
 10
319.2004152812942
 20
169.1905718418881
 10
316.9179727182988
 20
169.8640958216102
 10
317.3166677765404
 20
173.5452694621943
 10
322.0461095546228
 20
175.5655320078449
 10
324.8625809430825
 20
171.6889917092462
  0
LWPOLYLINE
  5
1259
330
1F
100
AcDbEntity
  8
innen
100
AcDbPolyline
 90
        5
 70
     1
 43
0.0
 10
314.2582088588985
 20
172.2387960370723
 10
313.9708572987956
 20
169.5856631056233
 10
309.4031017310877
 20
166.0527666565475
 10
306.0309965849897
 20
166.0194672669944
 10
310.2437647610886
 20
170.5239570702406
  0
LWPOLYLINE
  5
125A
330
1F
100
AcDbEntity
  8
innen
100
AcDbPolyline
 90
        5
 70
     1
 43
0.0
 10
308.1874430572967
 20
163.1406206878269
 10
307.793864987029
 20
160.8020086408665
 10
304.1854836895856
 20
156.1748591375356
 10
298.5396029633471
 20
158.0093169880732
 10
303.2933923938585
 20
163.0922921534336
  0
LWPOLYLINE
  5
125B
330
1F
100
AcDbEntity
  8
innen
100
AcDbPolyline
 90
        5
 70
     1
 43
0.0
 10
320.3560091383079
 20
158.4135552305879
 10
318.7448122810511
 20
160.0664732448304
 10
309.944726296025
 20
158.8442813864298
 10
307.1195879719581
 20
155.221510865391
 10
313.2299154593795
 20
153.2361451142962
  0
LWPOLYLINE
  5
1262
330
1F
100
AcDbEntity
  8
innen
100
AcDbPolyline
 90
        5
 70
     1
 43
0.0
 10
412.6494297349632
 20
174.4236900402368
 10
411.4947094886197
 20
168.8619677054951
 10
406.2044356573307
 20
171.5744822514574
 10
405.9479895816879
 20
174.5470436040846
 10
408.7055916989553
 20
177.9529559674465
  0
LWPOLYLINE
  5
1263
330
1F
100
AcDbEntity
  8
innen
100
AcDbPolyline
 90
        5
 70
     1
 43
0.0
 10
385.693919557537
 20
162.8668838211962
 10
385.6766585945608
 20
166.5670353775781
 10
387.874571644812
 20
167.2156156173123
 10
392.2807535317573
 20
163.8076871256009
 10
392.6005184912975
 20
161.9076671725825
  0
LWPOLYLINE
  5
1264
330
1F
100
AcDbEntity
  8
innen
100
AcDbPolyline
 90
        5
 70
     1
 43
0.0
 10
392.981717440212
 20
202.6266433701194
 10
396.3620857553013
 20
205.8838684098481
 10
403.3631144312534
 20
200.7973233369863
 10
401.3099005887876
 20
196.5758641316611
 10
397.0158872894123
 20
199.4224318374041
  0
LWPOLYLINE
  5
1265
330
1F
100
AcDbEntity
  8
innen
100
AcDbPolyline
 90
        5
 70
     1
 43
0.0
 10
409.3348119578854
 20
189.1771579424043
 10
403.6496680287016
 20
194.7561693551594
 10
406.1474708985979
 20
199.8917147621298
 10
411.4913080607654
 20
200.4130013840979
 10
414.8309349553136
 20
190.134686670444
  0
LWPOLYLINE
  5
1266
330
1F
100
AcDbEntity
  8
innen
100
AcDbPolyline
 90
        5
 70
     1
 43
0.0
 10
396.5194141699657
 20
196.2722078675778
 10
400.9726643905394
 20
193.3200795485234
 10
405.8186368340692
 20
188.5645736360779
 10
401.3301562053195
 20
187.7825952943823
 10
394.1444339861246
 20
193.0033280810603
  0
LWPOLYLINE
  5
1267
330
1F
100
AcDbEntity
  8
innen
100
AcDbPolyline
 90
        5
 70
     1
 43
0.0
 10
397.5287081500985
 20
208.620864760655
 10
396.4544149580909
 20
213.4954779121528
 10
407.2405537612972
 20
213.4954779121533
 10
410.5736539551747
 20
203.2372503177006
 10
405.6056464997529
 20
202.7526255535545
  0
LWPOLYLINE
  5
1268
330
1F
100
AcDbEntity
  8
innen
100
AcDbPolyline
 90
        5
 70
     1
 43
0.0
 10
403.3413510225395
 20
171.0217214245747
 10
400.6553809448062
 20
166.8807499674563
 10
395.8592939048336
 20
172.0089517255374
 10
398.1901280645673
 20
176.9492291326177
 10
403.0734071501216
 20
174.1275579940135
  0
LWPOLYLINE
  5
1269
330
1F
100
AcDbEntity
  8
innen
100
AcDbPolyline
 90
        5
 70
     1
 43
0.0
 10
405.3325919398863
 20
168.7625242817531
 10
411.492563368963
 20
165.604084352754
 10
414.2094196916931
 20
161.0076043183666
 10
408.0268952034951
 20
158.9987803397088
 10
402.6964384692706
 20
164.6983552990446
  0
LWPOLYLINE
  5
126A
330
1F
100
AcDbEntity
  8
innen
100
AcDbPolyline
 90
        5
 70
     1
 43
0.0
 10
415.4553745317471
 20
173.6728004671015
 10
419.9468221990061
 20
174.3896047224869
 10
423.3318202531989
 20
163.9716519377274
 10
417.0353937649196
 20
161.9258189558014
 10
414.0611889621215
 20
166.9576908585827
  0
LWPOLYLINE
  5
126B
330
1F
100
AcDbEntity
  8
innen
100
AcDbPolyline
 90
        5
 70
     1
 43
0.0
 10
410.0143373818896
 20
180.6734201224702
 10
414.691808540073
 20
176.4876398157328
 10
419.0396710546702
 20
177.1815288651393
 10
415.7361532958801
 20
187.3487110861335
 10
410.2508954051589
 20
186.3930752654779
  0
LWPOLYLINE
  5
126C
330
1F
100
AcDbEntity
  8
innen
100
AcDbPolyline
 90
        5
 70
     1
 43
0.0
 10
401.9646528274699
 20
184.9494548589946
 10
407.3273506103458
 20
185.8837383874552
 10
407.1083590287207
 20
180.5888161996212
 10
404.1057874084274
 20
176.8803421817798
 10
399.4318323767885
 20
179.5810610603937
  0
LWPOLYLINE
  5
126D
330
1F
100
AcDbEntity
  8
innen
100
AcDbPolyline
 90
        5
 70
     1
 43
0.0
 10
382.7970433419924
 20
162.1904887028596
 10
380.7944451039004
 20
160.1360341598767
 10
373.9027992363104
 20
165.1431079706336
 10
376.9147607748241
 20
169.2887173773996
 10
382.7759952992914
 20
166.7024587516561
  0
LWPOLYLINE
  5
126E
330
1F
100
AcDbEntity
  8
innen
100
AcDbPolyline
 90
        5
 70
     1
 43
0.0
 10
384.3208278175792
 20
169.1905718418876
 10
386.6032703805762
 20
169.8640958216111
 10
386.2045753223323
 20
173.5452694621956
 10
381.47513354425
 20
175.5655320078455
 10
378.6586621557916
 20
171.6889917092462
  0
LWPOLYLINE
  5
126F
330
1F
100
AcDbEntity
  8
innen
100
AcDbPolyline
 90
        5
 70
     1
 43
0.0
 10
389.2630342399752
 20
172.2387960370725
 10
389.5503858000778
 20
169.5856631056247
 10
394.1181413677864
 20
166.0527666565458
 10
397.4902465138854
 20
166.0194672669936
 10
393.2774783377859
 20
170.5239570702413
  0
LWPOLYLINE
  5
1270
330
1F
100
AcDbEntity
  8
innen
100
AcDbPolyline
 90
        5
 70
     1
 43
0.0
 10
395.3338000415781
 20
163.1406206878273
 10
395.7273781118452
 20
160.8020086408661
 10
399.3357594092894
 20
156.1748591375365
 10
404.9816401355275
 20
158.009316988073
 10
400.2278507050161
 20
163.0922921534328
  0
LWPOLYLINE
  5
1271
330
1F
100
AcDbEntity
  8
innen
100
AcDbPolyline
 90
        5
 70
     1
 43
0.0
 10
383.1652339605665
 20
158.413555230588
 10
384.7764308178238
 20
160.0664732448297
 10
393.5765168028497
 20
158.8442813864299
 10
396.4016551269157
 20
155.221510865392
 10
390.2913276394954
 20
153.2361451142958
  0
LWPOLYLINE
  5
1272
330
1F
100
AcDbEntity
  8
innen
100
AcDbPolyline
 90
        5
 70
     1
 43
0.0
 10
368.4096407060803
 20
206.5657781997032
 10
363.4769566176682
 20
203.7489072654928
 10
367.6914957709152
 20
199.5557709574527
 10
370.5978158109334
 20
200.2304482209167
 10
372.9848850400798
 20
203.9055684855238
  0
LWPOLYLINE
  5
1273
330
1F
100
AcDbEntity
  8
innen
100
AcDbPolyline
 90
        5
 70
     1
 43
0.0
 10
365.7481755807721
 20
177.3583150730228
 10
369.2725627606485
 20
178.4853086343923
 10
369.2102067393023
 20
180.7760704793752
 10
364.6074890568179
 20
183.9134906553826
 10
362.7016498927059
 20
183.6304667487032
  0
LWPOLYLINE
  5
1274
330
1F
100
AcDbEntity
  8
innen
100
AcDbPolyline
 90
        5
 70
     1
 43
0.0
 10
383.4652957153605
 20
207.9724616715241
 10
390.5280569635333
 20
204.2895778299493
 10
394.6403873521658
 20
208.252100331923
 10
393.484823892563
 20
213.4954779121524
 10
382.6775642423234
 20
213.4954779121521
  0
LWPOLYLINE
  5
1275
330
1F
100
AcDbEntity
  8
innen
100
AcDbPolyline
 90
        5
 70
     1
 43
0.0
 10
394.1732648862794
 20
197.9767850992266
 10
389.9894940131434
 20
201.2998199200304
 10
383.9692512875071
 20
204.4390814464412
 10
384.6125624832437
 20
199.9286380993865
 10
391.7982847024381
 20
194.7079053127105
  0
LWPOLYLINE
  5
1276
330
1F
100
AcDbEntity
  8
innen
100
AcDbPolyline
 90
        5
 70
     1
 43
0.0
 10
368.0505307930422
 20
196.6620031694981
 10
364.9422433053589
 20
192.8278632710243
 10
371.3015254061114
 20
189.8512149327689
 10
375.2797410599914
 20
193.5945996245025
 10
371.0871561110699
 20
197.3669296853399
  0
LWPOLYLINE
  5
1277
330
1F
100
AcDbEntity
  8
innen
100
AcDbPolyline
 90
        5
 70
     1
 43
0.0
 10
365.2865793454104
 20
197.8576555086781
 10
360.3791886131606
 20
202.7401248627208
 10
355.1681215494362
 20
203.9036183273598
 10
355.1681215494368
 20
197.4029273775908
 10
362.2359411732798
 20
194.0946272888256
  0
LWPOLYLINE
  5
1278
330
1F
100
AcDbEntity
  8
innen
100
AcDbPolyline
 90
        5
 70
     1
 43
0.0
 10
366.8284176570475
 20
209.0023526440535
 10
366.122205356513
 20
213.495477912154
 10
355.1681215494378
 20
213.4954779121534
 10
355.1681215494375
 20
206.8750233120347
 10
360.8727959405574
 20
205.6013203850138
  0
LWPOLYLINE
  5
1279
330
1F
100
AcDbEntity
  8
innen
100
AcDbPolyline
 90
        5
 70
     1
 43
0.0
 10
375.1677755447215
 20
205.990929251943
 10
369.7414438296407
 20
209.1459914272118
 10
369.0578081254491
 20
213.4954779121522
 10
379.7482161577713
 20
213.4954779121527
 10
380.5343903900937
 20
207.9833799426071
  0
LWPOLYLINE
  5
127A
330
1F
100
AcDbEntity
  8
innen
100
AcDbPolyline
 90
        5
 70
     1
 43
0.0
 10
381.7220155714696
 20
199.6565917044628
 10
380.9534072586748
 20
205.04552986365
 10
375.9853091290057
 20
203.2010355529974
 10
373.3861864063243
 20
199.1994387531619
 10
377.399054230234
 20
195.5888113939749
  0
LWPOLYLINE
  5
127B
330
1F
100
AcDbEntity
  8
innen
100
AcDbPolyline
 90
        5
 70
     1
 43
0.0
 10
366.0000695770926
 20
174.39420448485
 10
364.6650040850324
 20
171.8547590130401
 10
371.5566499526225
 20
166.8476852022819
 10
374.5686114911367
 20
170.9932946090474
 10
370.2977122962226
 20
175.7684620298731
  0
LWPOLYLINE
  5
127C
330
1F
100
AcDbEntity
  8
innen
100
AcDbPolyline
 90
        5
 70
     1
 43
0.0
 10
372.1866689623511
 20
178.0065542917844
 10
372.1219147914977
 20
180.3854165202449
 10
375.7461225185596
 20
181.1437802012741
 10
379.1289842605623
 20
177.2701092394952
 10
376.312512872104
 20
173.393568940896
  0
LWPOLYLINE
  5
127D
330
1F
100
AcDbEntity
  8
innen
100
AcDbPolyline
 90
        5
 70
     1
 43
0.0
 10
373.5584766720813
 20
183.6488249936554
 10
370.9464007935974
 20
183.102249403206
 10
366.1749025077343
 20
186.3547180585874
 10
365.1011951093486
 20
189.5514905541419
 10
370.6870364490874
 20
186.9368738288149
  0
LWPOLYLINE
  5
127E
330
1F
100
AcDbEntity
  8
innen
100
AcDbPolyline
 90
        5
 70
     1
 43
0.0
 10
363.0296279182195
 20
186.6109755674515
 10
360.683853379545
 20
186.2626196900895
 10
355.168121549437
 20
188.2645264042583
 10
355.1681215494372
 20
194.2009567104536
 10
361.4713199243289
 20
191.2505600035516
  0
LWPOLYLINE
  5
127F
330
1F
100
AcDbEntity
  8
innen
100
AcDbPolyline
 90
        5
 70
     1
 43
0.0
 10
362.294215228365
 20
173.5772379423279
 10
363.3683464665372
 20
175.6203569691659
 10
359.4865968141081
 20
183.612058034551
 10
355.1681215494368
 20
185.1794265893675
 10
355.1681215494367
 20
178.7546480586194
  0
LWPOLYLINE
  5
1286
330
1F
100
AcDbEntity
  8
innen
100
AcDbPolyline
 90
        5
 70
     1
 43
0.0
 10
406.0409936992073
 20
90.7483826111253
 10
400.3946532510582
 20
90.12792010647746
 10
401.3396233667756
 20
95.99748259890077
 10
404.0874510157643
 20
97.15994928500407
 10
408.17881208083
 20
95.58979862365942
  0
LWPOLYLINE
  5
1287
330
1F
100
AcDbEntity
  8
innen
100
AcDbPolyline
 90
        5
 70
     1
 43
0.0
 10
386.7201071001571
 20
112.8133466930445
 10
390.2338264182364
 20
113.9731725570435
 10
391.5298553662611
 20
112.0832553446477
 10
389.6503078505228
 20
106.839619529534
 10
387.9420942998185
 20
105.9483665259457
  0
LWPOLYLINE
  5
1288
330
1F
100
AcDbEntity
  8
innen
100
AcDbPolyline
 90
        5
 70
     1
 43
0.0
 10
426.7859389028047
 20
118.168680420165
 10
430.9283352584902
 20
115.9602969983986
 10
428.2541802604877
 20
107.7300941851985
 10
423.6048560045821
 20
108.3783139539166
 10
424.9851796866261
 20
113.3418010800581
  0
LWPOLYLINE
  5
1289
330
1F
100
AcDbEntity
  8
innen
100
AcDbPolyline
 90
        5
 70
     1
 43
0.0
 10
419.0481022625402
 20
98.45984375477724
 10
422.5972513315417
 20
105.5907462730558
 10
428.2533087909662
 20
104.8021653833614
 10
430.4004183279295
 20
99.88096065338692
 10
421.6571616082626
 20
93.52861281328097
  0
LWPOLYLINE
  5
128A
330
1F
100
AcDbEntity
  8
innen
100
AcDbPolyline
 90
        5
 70
     1
 43
0.0
 10
421.8357200211734
 20
112.8405023327096
 10
420.4042091447607
 20
107.6929518715768
 10
417.3789420977711
 20
101.6146260575761
 10
415.2482197070947
 20
105.641780210996
 10
417.992921361111
 20
114.0891033060212
  0
LWPOLYLINE
  5
128B
330
1F
100
AcDbEntity
  8
innen
100
AcDbPolyline
 90
        5
 70
     1
 43
0.0
 10
433.8918796190106
 20
115.6965515537136
 10
438.1959373678893
 20
118.2246033991998
 10
441.5290375617649
 20
107.9663758047485
 10
432.8028679662858
 20
101.6264424870433
 10
430.8067636944797
 20
106.2015410625088
  0
LWPOLYLINE
  5
128C
330
1F
100
AcDbEntity
  8
innen
100
AcDbPolyline
 90
        5
 70
     1
 43
0.0
 10
399.929174771932
 20
98.54962540819326
 10
395.1608664834458
 20
99.82450419972383
 10
398.5560037804916
 20
105.9705555256402
 10
403.9747541672255
 20
105.280430185336
 10
402.8002016697289
 20
99.7642114557662
  0
LWPOLYLINE
  5
128D
330
1F
100
AcDbEntity
  8
innen
100
AcDbPolyline
 90
        5
 70
     1
 43
0.0
 10
398.395877891011
 20
95.95771244746243
 10
397.2955588716591
 20
89.12321986587352
 10
393.7636013579316
 20
85.1189455113734
 10
389.9425910879486
 20
90.3781149649152
 10
393.7160072744783
 20
97.208946099978
  0
LWPOLYLINE
  5
128E
330
1F
100
AcDbEntity
  8
innen
100
AcDbPolyline
 90
        5
 70
     1
 43
0.0
 10
406.1939399051435
 20
87.84773288878137
 10
408.263594921665
 20
83.79761701379209
 10
399.4015549639347
 20
77.35896809961844
 10
395.5101493865132
 20
82.71502838160046
 10
399.3766641200002
 20
87.09859917157598
  0
LWPOLYLINE
  5
128F
330
1F
100
AcDbEntity
  8
innen
100
AcDbPolyline
 90
        5
 70
     1
 43
0.0
 10
411.1705519001551
 20
95.18577717022231
 10
408.6350563422288
 20
89.44376049594604
 10
410.6385474504695
 20
85.52312102796168
 10
419.2872692254207
 20
91.80678521034952
 10
416.6833676442187
 20
96.728267761864
  0
LWPOLYLINE
  5
1290
330
1F
100
AcDbEntity
  8
innen
100
AcDbPolyline
 90
        5
 70
     1
 43
0.0
 10
412.7498132735546
 20
104.1628495219477
 10
415.2955344619729
 20
99.35133033848041
 10
410.1920920916098
 20
97.92338276926381
 10
405.7372780539309
 20
99.63301657967537
 10
406.8614828063995
 20
104.9127799999085
  0
LWPOLYLINE
  5
1291
330
1F
100
AcDbEntity
  8
innen
100
AcDbPolyline
 90
        5
 70
     1
 43
0.0
 10
385.1816331340693
 20
115.3594221082618
 10
382.6088938650581
 20
116.6291448441675
 10
385.2412683480495
 20
124.7307604541507
 10
390.1147244901729
 20
123.1472785648475
 10
389.4662674474138
 20
116.7737154096156
  0
LWPOLYLINE
  5
1292
330
1F
100
AcDbEntity
  8
innen
100
AcDbPolyline
 90
        5
 70
     1
 43
0.0
 10
392.3099831167705
 20
116.0733616053221
 10
393.6558560272183
 20
114.1107600885682
 10
397.0336566571396
 20
115.6274868359102
 10
397.4935626324738
 20
120.7497487170984
 10
392.9364161976044
 20
122.230455352406
  0
LWPOLYLINE
  5
1293
330
1F
100
AcDbEntity
  8
innen
100
AcDbPolyline
 90
        5
 70
     1
 43
0.0
 10
396.7362423749595
 20
112.314997061402
 10
394.3017595273392
 20
111.2218463235467
 10
392.3532894346201
 20
105.7859275839025
 10
393.3636576301616
 20
102.5685749337989
 10
396.3458650503488
 20
107.9671194595112
  0
LWPOLYLINE
  5
1294
330
1F
100
AcDbEntity
  8
innen
100
AcDbPolyline
 90
        5
 70
     1
 43
0.0
 10
389.9593332242283
 20
103.7298648861673
 10
387.8568033102043
 20
102.6328790320064
 10
384.5711737662868
 20
97.7712366537553
 10
388.0605199515306
 20
92.96856365012093
 10
391.4257148830059
 20
99.06041177318588
  0
LWPOLYLINE
  5
1295
330
1F
100
AcDbEntity
  8
innen
100
AcDbPolyline
 90
        5
 70
     1
 43
0.0
 10
381.7033331019599
 20
113.8421153916708
 10
383.7732387604838
 20
112.8205558782521
 10
385.3302413507224
 20
104.0734987036039
 10
382.757797593244
 20
100.2671348333435
 10
378.9814075236251
 20
105.4648898498134
  0
LWPOLYLINE
  5
1296
330
1F
100
AcDbEntity
  8
innen
100
AcDbPolyline
 90
        5
 70
     1
 43
0.0
 10
422.939089453117
 20
142.7553737225392
 10
418.7358027843702
 20
146.5761740780179
 10
416.0502573967046
 20
141.2721587742237
 10
417.5900158879776
 20
138.7165709018551
 10
421.8229079223554
 20
137.5820077747655
  0
LWPOLYLINE
  5
1297
330
1F
100
AcDbEntity
  8
innen
100
AcDbPolyline
 90
        5
 70
     1
 43
0.0
 10
394.3387033683779
 20
136.2609750041321
 10
396.4996334720804
 20
133.257343773779
 10
398.6590083817351
 20
134.0245322143754
 10
400.2205543002836
 20
139.3714930118499
 10
399.3624458793134
 20
141.0965945709115
  0
LWPOLYLINE
  5
1298
330
1F
100
AcDbEntity
  8
innen
100
AcDbPolyline
 90
        5
 70
     1
 43
0.0
 10
428.9293781946678
 20
128.8712840173696
 10
427.6092607712795
 20
121.0161252139039
 10
432.6486235943176
 20
118.3295533943402
 10
437.2782832622952
 20
121.0488523328033
 10
433.9386563677488
 20
131.3271670464566
  0
LWPOLYLINE
  5
1299
330
1F
100
AcDbEntity
  8
innen
100
AcDbPolyline
 90
        5
 70
     1
 43
0.0
 10
422.7318693048613
 20
115.5985662299646
 10
424.5994069246947
 20
120.6044430140747
 10
425.7246647432564
 20
127.3001192494173
 10
421.6337722988157
 20
125.2944902983028
 10
418.8890706447983
 20
116.8471672032767
  0
LWPOLYLINE
  5
129A
330
1F
100
AcDbEntity
  8
innen
100
AcDbPolyline
 90
        5
 70
     1
 43
0.0
 10
413.4090686087382
 20
140.0364727526011
 10
408.8020712168112
 20
141.807815434841
 10
407.9362366591517
 20
134.8399438311649
 10
412.72574330756
 20
132.2132053965409
 10
415.0178623939617
 20
137.3663047295258
  0
LWPOLYLINE
  5
129B
330
1F
100
AcDbEntity
  8
innen
100
AcDbPolyline
 90
        5
 70
     1
 43
0.0
 10
413.6920935881947
 20
143.0346236797649
 10
416.8191307486645
 20
149.2105956185926
 10
416.3153705083582
 20
154.5261541598153
 10
410.1328460201604
 20
152.5173301811576
 10
409.1705420398237
 20
144.7731133219816
  0
LWPOLYLINE
  5
129C
330
1F
100
AcDbEntity
  8
innen
100
AcDbPolyline
 90
        5
 70
     1
 43
0.0
 10
424.7677846618036
 20
145.0121491184021
 10
428.8227691240583
 20
147.0722489944121
 10
425.4377710698647
 20
157.4902017791749
 10
419.1413445815848
 20
155.4443687972501
 10
419.69282244725
 20
149.6253051939983
  0
LWPOLYLINE
  5
129D
330
1F
100
AcDbEntity
  8
innen
100
AcDbPolyline
 90
        5
 70
     1
 43
0.0
 10
424.4807541308784
 20
136.1503674521908
 10
425.8045678549105
 20
142.2860834198659
 10
429.7299202683939
 20
144.2803248517611
 10
433.033438027183
 20
134.1131426307651
 10
428.0340625331174
 20
131.6621145569238
  0
LWPOLYLINE
  5
129E
330
1F
100
AcDbEntity
  8
innen
100
AcDbPolyline
 90
        5
 70
     1
 43
0.0
 10
420.4818126834125
 20
127.9594968151112
 10
425.3694844049465
 20
130.3557602322991
 10
422.0800393197424
 20
134.5107222440925
 10
417.4711215158995
 20
135.7460734303656
 10
415.2772551917975
 20
130.8138641230632
  0
LWPOLYLINE
  5
129F
330
1F
100
AcDbEntity
  8
innen
100
AcDbPolyline
 90
        5
 70
     1
 43
0.0
 10
391.5975062041211
 20
135.1054490325641
 10
388.7697921147272
 20
135.5904399613905
 10
386.1374176317358
 20
127.4888243514065
 10
391.0108737738602
 20
125.9053424621038
 10
394.2325474333459
 20
131.4428168558865
  0
LWPOLYLINE
  5
12A0
330
1F
100
AcDbEntity
  8
innen
100
AcDbPolyline
 90
        5
 70
     1
 43
0.0
 10
396.9448193745773
 20
130.3379208534752
 10
399.1872416590731
 20
131.1346145854948
 10
401.0284301584434
 20
127.9221354756204
 10
398.3897119161604
 20
123.5078126143559
 10
393.8325654812916
 20
124.9885192496621
  0
LWPOLYLINE
  5
12A1
330
1F
100
AcDbEntity
  8
innen
100
AcDbPolyline
 90
        5
 70
     1
 43
0.0
 10
402.7348495876151
 20
130.7768117257758
 10
401.4078494736215
 20
133.0921423649058
 10
403.0266569234041
 20
138.6351749903516
 10
405.7351744033282
 20
140.6441884364581
 10
404.9746460309525
 20
134.5237766294038
  0
LWPOLYLINE
  5
12A2
330
1F
100
AcDbEntity
  8
innen
100
AcDbPolyline
 90
        5
 70
     1
 43
0.0
 10
402.2984289969237
 20
141.7056968094218
 10
401.2422386723469
 20
143.8290130839931
 10
401.4417102259534
 20
149.6934089789849
 10
407.0875909521944
 20
151.5278668295224
 10
406.2293923551965
 20
144.6214462190016
  0
LWPOLYLINE
  5
12A3
330
1F
100
AcDbEntity
  8
innen
100
AcDbPolyline
 90
        5
 70
     1
 43
0.0
 10
389.6753528778254
 20
138.3774694138872
 10
391.9503993486503
 20
137.9872684012917
 10
398.3514321126584
 20
144.1486031460257
 10
398.5076059435822
 20
148.7400607068412
 10
392.3972784561605
 20
146.7546949557445
  0
LWPOLYLINE
  5
12AA
330
1F
100
AcDbEntity
  8
innen
100
AcDbPolyline
 90
        5
 70
     1
 43
0.0
 10
324.4189282744629
 20
71.17628676030586
 10
322.0840182117961
 20
76.35454217843068
 10
327.9583156929506
 20
77.26961675187772
 10
329.9130126508958
 20
75.01549932205239
 10
329.684010732087
 20
70.63918048252066
  0
LWPOLYLINE
  5
12AB
330
1F
100
AcDbEntity
  8
innen
100
AcDbPolyline
 90
        5
 70
     1
 43
0.0
 10
339.4334738408937
 20
96.36999074251969
 10
341.6223327693669
 20
93.38665099112029
 10
340.2254096594023
 20
91.57003767820117
 10
334.6576035242609
 20
91.73722101154624
 10
333.2821045303411
 20
93.08641631577154
  0
LWPOLYLINE
  5
12AC
330
1F
100
AcDbEntity
  8
innen
100
AcDbPolyline
 90
        5
 70
     1
 43
0.0
 10
356.9077217997905
 20
59.92000945805472
 10
356.0874952273885
 20
55.29792840348148
 10
347.4337478714873
 20
55.29792840348216
 10
346.6135212990831
 20
59.92000945805336
 10
351.7606215494365
 20
60.14104549898963
  0
LWPOLYLINE
  5
12AD
330
1F
100
AcDbEntity
  8
innen
100
AcDbPolyline
 90
        5
 70
     1
 43
0.0
 10
335.7723812390406
 20
61.18876394783933
 10
343.6510199240057
 20
60.01689266184212
 10
344.6488528063579
 20
54.39397746216275
 10
340.6320023156012
 20
50.83121905147357
 10
331.8887455959344
 20
57.18356689158088
  0
LWPOLYLINE
  5
12AE
330
1F
100
AcDbEntity
  8
innen
100
AcDbPolyline
 90
        5
 70
     1
 43
0.0
 10
350.3106215494369
 20
62.98144980443556
 10
344.9726489519751
 20
62.75221697970528
 10
338.2569586483611
 20
63.75111094440228
 10
341.4285804190823
 20
67.02200743084597
 10
350.3106215494378
 20
67.02200743084569
  0
LWPOLYLINE
  5
12AF
330
1F
100
AcDbEntity
  8
innen
100
AcDbPolyline
 90
        5
 70
     1
 43
0.0
 10
356.7524439745607
 20
52.39792840348099
 10
360.4867911449168
 20
49.08573721781647
 10
351.7606215494382
 20
42.74580390011351
 10
343.0344519539564
 20
49.08573721781659
 10
346.7687991243136
 20
52.39792840348161
  0
LWPOLYLINE
  5
12B0
330
1F
100
AcDbEntity
  8
innen
100
AcDbPolyline
 90
        5
 70
     1
 43
0.0
 10
329.9496951567445
 20
79.3996885790466
 10
329.6886886433554
 20
84.32857846086642
 10
336.583085929376
 20
82.99884531880389
 10
337.601223685196
 20
77.63204699491911
 10
331.9920312346163
 20
77.04450746926858
  0
LWPOLYLINE
  5
12B1
330
1F
100
AcDbEntity
  8
innen
100
AcDbPolyline
 90
        5
 70
     1
 43
0.0
 10
327.0108246521455
 20
80.056995416255
 10
320.1708186706398
 20
78.99148663397347
 10
315.2710925576055
 20
81.11318901699957
 10
319.0921028275909
 20
86.3723584705408
 10
326.7546590187928
 20
84.8944693240876
  0
LWPOLYLINE
  5
12B2
330
1F
100
AcDbEntity
  8
innen
100
AcDbPolyline
 90
        5
 70
     1
 43
0.0
 10
321.7075094313974
 20
70.13447621557418
 10
318.4951789093363
 20
66.9145626910693
 10
309.6331389516052
 20
73.35321160524268
 10
313.5245445290265
 20
78.70927188722601
 10
318.888386855123
 20
76.38659572474091
  0
LWPOLYLINE
  5
12B3
330
1F
100
AcDbEntity
  8
innen
100
AcDbPolyline
 90
        5
 70
     1
 43
0.0
 10
330.2242619429926
 20
67.66901733708738
 10
323.9797683516868
 20
68.30603617515521
 10
320.8701314381408
 20
65.18905867689767
 10
329.518853213091
 20
58.90539449451092
 10
333.3948114232705
 20
62.90267380704131
  0
LWPOLYLINE
  5
12B4
330
1F
100
AcDbEntity
  8
innen
100
AcDbPolyline
 90
        5
 70
     1
 43
0.0
 10
339.2499837032945
 20
68.94111843339829
 10
335.4606281407404
 20
65.03315251203145
 10
332.5255188778538
 20
69.44555456793688
 10
332.7748640093016
 20
74.21064038892973
 10
338.1436157882796
 20
74.77299475657566
  0
LWPOLYLINE
  5
12B5
330
1F
100
AcDbEntity
  8
innen
100
AcDbPolyline
 90
        5
 70
     1
 43
0.0
 10
341.3795208545887
 20
98.61994700537906
 10
341.7920787802386
 20
101.4591333554397
 10
350.3106215494358
 20
101.4591333554406
 10
350.3106215494363
 20
96.33487832051645
 10
344.0486185323012
 20
94.98205828687986
  0
LWPOLYLINE
  5
12B6
330
1F
100
AcDbEntity
  8
innen
100
AcDbPolyline
 90
        5
 70
     1
 43
0.0
 10
344.2612989520154
 20
92.06110274144527
 10
342.8106515922137
 20
90.17462431799692
 10
345.2969422469688
 20
87.43083935891616
 10
350.3106215494357
 20
88.57630875511666
 10
350.3106215494362
 20
93.36797608170383
  0
LWPOLYLINE
  5
12B7
330
1F
100
AcDbEntity
  8
innen
100
AcDbPolyline
 90
        5
 70
     1
 43
0.0
 10
342.0546711942005
 20
86.69008151600553
 10
340.262726489238
 20
88.6676101366333
 10
334.4907501781684
 20
88.84092404452707
 10
331.7430869180664
 20
86.88579014252122
 10
337.7989606413421
 20
85.71778434594506
  0
LWPOLYLINE
  5
12B8
330
1F
100
AcDbEntity
  8
innen
100
AcDbPolyline
 90
        5
 70
     1
 43
0.0
 10
331.7955451987752
 20
90.48235338304664
 10
330.1025321792785
 20
92.14299088695861
 10
324.4635201492521
 20
93.76548015938027
 10
320.9741739640094
 20
88.96280715574562
 10
327.8077682409404
 20
87.64480118474296
  0
LWPOLYLINE
  5
12B9
330
1F
100
AcDbEntity
  8
innen
100
AcDbPolyline
 90
        5
 70
     1
 43
0.0
 10
338.8616225931015
 20
101.4591333554406
 10
338.5296977863176
 20
99.17485684037433
 10
330.6918923226311
 20
94.99107006330195
 10
326.2768963222949
 20
96.26137833896956
 10
330.0532863919145
 20
101.4591333554401
  0
LWPOLYLINE
  5
12BA
330
1F
100
AcDbEntity
  8
innen
100
AcDbPolyline
 90
        5
 70
     1
 43
0.0
 10
379.1023148244097
 20
71.17628676030665
 10
381.4372248870781
 20
76.35454217843107
 10
375.5629274059223
 20
77.26961675187914
 10
373.608230447978
 20
75.015499322052
 10
373.8372323667877
 20
70.6391804825206
  0
LWPOLYLINE
  5
12BB
330
1F
100
AcDbEntity
  8
innen
100
AcDbPolyline
 90
        5
 70
     1
 43
0.0
 10
364.0877692579798
 20
96.36999074251725
 10
361.8989103295079
 20
93.38665099111921
 10
363.295833439473
 20
91.57003767820055
 10
368.8636395746124
 20
91.73722101154635
 10
370.2391385685345
 20
93.08641631577103
  0
LWPOLYLINE
  5
12BC
330
1F
100
AcDbEntity
  8
innen
100
AcDbPolyline
 90
        5
 70
     1
 43
0.0
 10
367.748861859835
 20
61.18876394783962
 10
359.8702231748678
 20
60.01689266184394
 10
358.8723902925162
 20
54.39397746216241
 10
362.8892407832732
 20
50.8312190514726
 10
371.6324975029388
 20
57.18356689158014
  0
LWPOLYLINE
  5
12BD
330
1F
100
AcDbEntity
  8
innen
100
AcDbPolyline
 90
        5
 70
     1
 43
0.0
 10
353.2106215494379
 20
62.98144980443561
 10
358.5485941468998
 20
62.75221697970471
 10
365.2642844505135
 20
63.75111094440285
 10
362.0926626797921
 20
67.02200743084546
 10
353.2106215494367
 20
67.02200743084643
  0
LWPOLYLINE
  5
12BE
330
1F
100
AcDbEntity
  8
innen
100
AcDbPolyline
 90
        5
 70
     1
 43
0.0
 10
373.57154794213
 20
79.39968857904671
 10
373.8325544555186
 20
84.32857846086574
 10
366.9381571694992
 20
82.99884531880429
 10
365.9200194136783
 20
77.63204699491848
 10
371.5292118642568
 20
77.04450746926739
  0
LWPOLYLINE
  5
12BF
330
1F
100
AcDbEntity
  8
innen
100
AcDbPolyline
 90
        5
 70
     1
 43
0.0
 10
376.5104184467293
 20
80.0569954162541
 10
383.3504244282331
 20
78.99148663397239
 10
388.2501505412671
 20
81.11318901699951
 10
384.4291402712824
 20
86.37235847054035
 10
376.7665840800826
 20
84.89446932408725
  0
LWPOLYLINE
  5
12C0
330
1F
100
AcDbEntity
  8
innen
100
AcDbPolyline
 90
        5
 70
     1
 43
0.0
 10
381.8137336674765
 20
70.13447621557475
 10
385.026064189537
 20
66.91456269106925
 10
393.8881041472686
 20
73.35321160524325
 10
389.9966985698468
 20
78.70927188722726
 10
384.6328562437526
 20
76.38659572474091
  0
LWPOLYLINE
  5
12C1
330
1F
100
AcDbEntity
  8
innen
100
AcDbPolyline
 90
        5
 70
     1
 43
0.0
 10
373.2969811558814
 20
67.66901733708698
 10
379.5414747471879
 20
68.3060361751547
 10
382.6511116607329
 20
65.18905867689762
 10
374.0023898857817
 20
58.90539449451052
 10
370.1264316756047
 20
62.9026738070404
  0
LWPOLYLINE
  5
12C2
330
1F
100
AcDbEntity
  8
innen
100
AcDbPolyline
 90
        5
 70
     1
 43
0.0
 10
364.2712593955794
 20
68.94111843339829
 10
368.0606149581349
 20
65.03315251203122
 10
370.9957242210198
 20
69.44555456793614
 10
370.7463790895717
 20
74.21064038892996
 10
365.3776273105935
 20
74.77299475657588
  0
LWPOLYLINE
  5
12C3
330
1F
100
AcDbEntity
  8
innen
100
AcDbPolyline
 90
        5
 70
     1
 43
0.0
 10
362.1417222442857
 20
98.61994700537917
 10
361.7291643186337
 20
101.4591333554394
 10
353.2106215494372
 20
101.4591333554394
 10
353.210621549436
 20
96.33487832051605
 10
359.4726245665748
 20
94.98205828688049
  0
LWPOLYLINE
  5
12C4
330
1F
100
AcDbEntity
  8
innen
100
AcDbPolyline
 90
        5
 70
     1
 43
0.0
 10
359.2599441468594
 20
92.06110274144442
 10
360.7105915066609
 20
90.1746243179955
 10
358.224300851906
 20
87.43083935891536
 10
353.210621549438
 20
88.57630875511705
 10
353.2106215494371
 20
93.36797608170457
  0
LWPOLYLINE
  5
12C5
330
1F
100
AcDbEntity
  8
innen
100
AcDbPolyline
 90
        5
 70
     1
 43
0.0
 10
361.4665719046762
 20
86.69008151600565
 10
363.258516609636
 20
88.66761013663381
 10
369.0304929207055
 20
88.8409240445257
 10
371.7781561808088
 20
86.88579014252053
 10
365.722282457532
 20
85.71778434594427
  0
LWPOLYLINE
  5
12C6
330
1F
100
AcDbEntity
  8
innen
100
AcDbPolyline
 90
        5
 70
     1
 43
0.0
 10
371.7256979000986
 20
90.48235338304602
 10
373.4187109195974
 20
92.14299088695878
 10
379.0577229496219
 20
93.7654801593809
 10
382.5470691348661
 20
88.96280715574659
 10
375.7134748579327
 20
87.64480118474296
  0
LWPOLYLINE
  5
12C7
330
1F
100
AcDbEntity
  8
innen
100
AcDbPolyline
 90
        5
 70
     1
 43
0.0
 10
364.6596205057733
 20
101.4591333554392
 10
364.9915453125558
 20
99.17485684037422
 10
372.8293507762422
 20
94.99107006330092
 10
377.2443467765796
 20
96.26137833896928
 10
373.4679567069604
 20
101.4591333554398
  0
LWPOLYLINE
  5
12CE
330
1F
100
AcDbEntity
  8
innen
100
AcDbPolyline
 90
        5
 70
     1
 43
0.0
 10
280.5821536457579
 20
142.7553737225397
 10
284.7854403145045
 20
146.5761740780167
 10
287.4709857021689
 20
141.2721587742251
 10
285.9312272108961
 20
138.7165709018553
 10
281.6983351765186
 20
137.5820077747653
  0
LWPOLYLINE
  5
12CF
330
1F
100
AcDbEntity
  8
innen
100
AcDbPolyline
 90
        5
 70
     1
 43
0.0
 10
309.182539730496
 20
136.2609750041329
 10
307.0216096267935
 20
133.2573437737794
 10
304.8622347171395
 20
134.024532214376
 10
303.3006887985897
 20
139.3714930118505
 10
304.158797219562
 20
141.0965945709123
  0
LWPOLYLINE
  5
12D0
330
1F
100
AcDbEntity
  8
innen
100
AcDbPolyline
 90
        5
 70
     1
 43
0.0
 10
279.9163870942925
 20
108.3783139539167
 10
275.2670628383843
 20
107.7300941851984
 10
272.5929078403852
 20
115.9602969984002
 10
276.7353041960711
 20
118.1686804201628
 10
278.5360634122479
 20
113.3418010800586
  0
LWPOLYLINE
  5
12D1
330
1F
100
AcDbEntity
  8
innen
100
AcDbPolyline
 90
        5
 70
     1
 43
0.0
 10
274.5918649042063
 20
128.8712840173694
 10
275.911982327594
 20
121.0161252139044
 10
270.8726195045552
 20
118.3295533943402
 10
266.2429598365775
 20
121.0488523328023
 10
269.5825867311239
 20
131.3271670464573
  0
LWPOLYLINE
  5
12D2
330
1F
100
AcDbEntity
  8
innen
100
AcDbPolyline
 90
        5
 70
     1
 43
0.0
 10
280.7893737940123
 20
115.5985662299655
 10
278.9218361741794
 20
120.6044430140765
 10
277.7965783556178
 20
127.300119249418
 10
281.8874708000583
 20
125.2944902983022
 10
284.632172454075
 20
116.8471672032773
  0
LWPOLYLINE
  5
12D3
330
1F
100
AcDbEntity
  8
innen
100
AcDbPolyline
 90
        5
 70
     1
 43
0.0
 10
272.7144794043936
 20
106.2015410625085
 10
270.7183751325873
 20
101.626442487045
 10
261.9922055371075
 20
107.9663758047476
 10
265.325305730985
 20
118.2246033992004
 10
269.6293634798649
 20
115.6965515537129
  0
LWPOLYLINE
  5
12D4
330
1F
100
AcDbEntity
  8
innen
100
AcDbPolyline
 90
        5
 70
     1
 43
0.0
 10
290.1121744901362
 20
140.0364727526022
 10
294.7191718820628
 20
141.8078154348407
 10
295.585006439722
 20
134.8399438311633
 10
290.7954997913127
 20
132.2132053965408
 10
288.5033807049153
 20
137.3663047295252
  0
LWPOLYLINE
  5
12D5
330
1F
100
AcDbEntity
  8
innen
100
AcDbPolyline
 90
        5
 70
     1
 43
0.0
 10
289.8291495106795
 20
143.034623679764
 10
286.702112350209
 20
149.2105956185924
 10
287.2058725905152
 20
154.5261541598152
 10
293.3883970787122
 20
152.5173301811573
 10
294.3507010590509
 20
144.773113321982
  0
LWPOLYLINE
  5
12D6
330
1F
100
AcDbEntity
  8
innen
100
AcDbPolyline
 90
        5
 70
     1
 43
0.0
 10
278.753458437071
 20
145.0121491184013
 10
274.6984739748169
 20
147.0722489944129
 10
278.0834720290093
 20
157.4902017791745
 10
284.3798985172899
 20
155.4443687972495
 10
283.8284206516229
 20
149.6253051939997
  0
LWPOLYLINE
  5
12D7
330
1F
100
AcDbEntity
  8
innen
100
AcDbPolyline
 90
        5
 70
     1
 43
0.0
 10
279.0404889679962
 20
136.150367452192
 10
277.7166752439636
 20
142.2860834198665
 10
273.7913228304807
 20
144.2803248517594
 10
270.4878050716903
 20
134.1131426307667
 10
275.4871805657564
 20
131.6621145569232
  0
LWPOLYLINE
  5
12D8
330
1F
100
AcDbEntity
  8
innen
100
AcDbPolyline
 90
        5
 70
     1
 43
0.0
 10
283.0394304154619
 20
127.9594968151125
 10
278.1517586939275
 20
130.3557602322976
 10
281.4412037791323
 20
134.5107222440934
 10
286.0501215829762
 20
135.7460734303661
 10
288.2439879070766
 20
130.8138641230626
  0
LWPOLYLINE
  5
12D9
330
1F
100
AcDbEntity
  8
innen
100
AcDbPolyline
 90
        5
 70
     1
 43
0.0
 10
311.9237368947544
 20
135.1054490325636
 10
314.7514509841458
 20
135.590439961391
 10
317.3838254671371
 20
127.4888243514084
 10
312.5103693250145
 20
125.9053424621041
 10
309.2886956655278
 20
131.4428168558875
  0
LWPOLYLINE
  5
12DA
330
1F
100
AcDbEntity
  8
innen
100
AcDbPolyline
 90
        5
 70
     1
 43
0.0
 10
306.5764237242964
 20
130.3379208534747
 10
304.3340014398019
 20
131.134614585494
 10
302.4928129404295
 20
127.9221354756183
 10
305.1315311827116
 20
123.5078126143567
 10
309.6886776175813
 20
124.988519249662
  0
LWPOLYLINE
  5
12DB
330
1F
100
AcDbEntity
  8
innen
100
AcDbPolyline
 90
        5
 70
     1
 43
0.0
 10
300.7863935112588
 20
130.7768117257755
 10
302.1133936252523
 20
133.092142364904
 10
300.4945861754695
 20
138.6351749903514
 10
297.7860686955465
 20
140.6441884364572
 10
298.5465970679218
 20
134.5237766294043
  0
LWPOLYLINE
  5
12DC
330
1F
100
AcDbEntity
  8
innen
100
AcDbPolyline
 90
        5
 70
     1
 43
0.0
 10
301.2228141019496
 20
141.7056968094213
 10
302.2790044265271
 20
143.8290130839936
 10
302.0795328729197
 20
149.6934089789843
 10
296.4336521466813
 20
151.5278668295218
 10
297.2918507436775
 20
144.6214462190009
  0
LWPOLYLINE
  5
12DD
330
1F
100
AcDbEntity
  8
innen
100
AcDbPolyline
 90
        5
 70
     1
 43
0.0
 10
313.8458902210488
 20
138.3774694138863
 10
311.5708437502253
 20
137.9872684012915
 10
305.169810986216
 20
144.1486031460283
 10
305.0136371552934
 20
148.7400607068419
 10
311.1239646427136
 20
146.7546949557446
  0
LWPOLYLINE
  5
12DE
330
1F
100
AcDbEntity
  8
innen
100
AcDbPolyline
 90
        5
 70
     1
 43
0.0
 10
297.4802493996676
 20
90.7483826111262
 10
303.1265898478147
 20
90.12792010647837
 10
302.1816197320978
 20
95.99748259890299
 10
299.4337920831101
 20
97.15994928500561
 10
295.3424310180444
 20
95.58979862366016
  0
LWPOLYLINE
  5
12DF
330
1F
100
AcDbEntity
  8
innen
100
AcDbPolyline
 90
        5
 70
     1
 43
0.0
 10
316.8011359987166
 20
112.8133466930456
 10
313.2874166806384
 20
113.9731725570444
 10
311.9913877326134
 20
112.0832553446486
 10
313.8709352483514
 20
106.8396195295335
 10
315.5791487990556
 20
105.948366525946
  0
LWPOLYLINE
  5
12E0
330
1F
100
AcDbEntity
  8
innen
100
AcDbPolyline
 90
        5
 70
     1
 43
0.0
 10
284.4731408363315
 20
98.45984375477735
 10
280.9239917673326
 20
105.5907462730582
 10
275.2679343079075
 20
104.8021653833603
 10
273.1208247709442
 20
99.88096065338686
 10
281.8640814906104
 20
93.52861281328148
  0
LWPOLYLINE
  5
12E1
330
1F
100
AcDbEntity
  8
innen
100
AcDbPolyline
 90
        5
 70
     1
 43
0.0
 10
281.6855230776984
 20
112.8405023327091
 10
283.117033954114
 20
107.6929518715775
 10
286.1423010011039
 20
101.6146260575748
 10
288.2730233917797
 20
105.6417802109946
 10
285.5283217377623
 20
114.0891033060213
  0
LWPOLYLINE
  5
12E2
330
1F
100
AcDbEntity
  8
innen
100
AcDbPolyline
 90
        5
 70
     1
 43
0.0
 10
303.5920683269424
 20
98.54962540819366
 10
308.3603766154282
 20
99.82450419972474
 10
304.9652393183824
 20
105.9705555256402
 10
299.5464889316478
 20
105.2804301853364
 10
300.7210414291449
 20
99.76421145576649
  0
LWPOLYLINE
  5
12E3
330
1F
100
AcDbEntity
  8
innen
100
AcDbPolyline
 90
        5
 70
     1
 43
0.0
 10
305.1253652078626
 20
95.9577124474618
 10
306.2256842272146
 20
89.12321986587432
 10
309.7576417409413
 20
85.11894551137226
 10
313.5786520109263
 20
90.37811496491548
 10
309.8052358243954
 20
97.20894609997879
  0
LWPOLYLINE
  5
12E4
330
1F
100
AcDbEntity
  8
innen
100
AcDbPolyline
 90
        5
 70
     1
 43
0.0
 10
297.3273031937302
 20
87.84773288878233
 10
295.2576481772088
 20
83.79761701379311
 10
304.1196881349388
 20
77.35896809961798
 10
308.0110937123618
 20
82.71502838160131
 10
304.1445789788732
 20
87.09859917157559
  0
LWPOLYLINE
  5
12E5
330
1F
100
AcDbEntity
  8
innen
100
AcDbPolyline
 90
        5
 70
     1
 43
0.0
 10
292.3506911987178
 20
95.18577717022163
 10
294.8861867566447
 20
89.443760495947
 10
292.8826956484038
 20
85.52312102796242
 10
284.2339738734531
 20
91.80678521034974
 10
286.8378754546541
 20
96.7282677618636
  0
LWPOLYLINE
  5
12E6
330
1F
100
AcDbEntity
  8
innen
100
AcDbPolyline
 90
        5
 70
     1
 43
0.0
 10
290.7714298253188
 20
104.162849521947
 10
288.2257086369029
 20
99.35133033847967
 10
293.3291510072638
 20
97.92338276926466
 10
297.7839650449439
 20
99.63301657967651
 10
296.659760292475
 20
104.9127799999079
  0
LWPOLYLINE
  5
12E7
330
1F
100
AcDbEntity
  8
innen
100
AcDbPolyline
 90
        5
 70
     1
 43
0.0
 10
318.3396099648054
 20
115.3594221082618
 10
320.9123492338156
 20
116.6291448441663
 10
318.2799747508249
 20
124.7307604541512
 10
313.4065186087018
 20
123.1472785648482
 10
314.0549756514616
 20
116.7737154096165
  0
LWPOLYLINE
  5
12E8
330
1F
100
AcDbEntity
  8
innen
100
AcDbPolyline
 90
        5
 70
     1
 43
0.0
 10
311.2112599821029
 20
116.0733616053204
 10
309.8653870716567
 20
114.110760088567
 10
306.4875864417336
 20
115.6274868359105
 10
306.0276804663999
 20
120.7497487170976
 10
310.5848269012687
 20
122.2304553524061
  0
LWPOLYLINE
  5
12E9
330
1F
100
AcDbEntity
  8
innen
100
AcDbPolyline
 90
        5
 70
     1
 43
0.0
 10
306.7850007239147
 20
112.3149970614036
 10
309.2194835715343
 20
111.2218463235456
 10
311.1679536642528
 20
105.7859275839015
 10
310.1575854687118
 20
102.568574933799
 10
307.175378048525
 20
107.9671194595107
  0
LWPOLYLINE
  5
12EA
330
1F
100
AcDbEntity
  8
innen
100
AcDbPolyline
 90
        5
 70
     1
 43
0.0
 10
313.5619098746452
 20
103.7298648861673
 10
315.6644397886689
 20
102.6328790320063
 10
318.9500693325876
 20
97.77123665375495
 10
315.4607231473434
 20
92.96856365011911
 10
312.0955282158685
 20
99.06041177318627
  0
LWPOLYLINE
  5
12EB
330
1F
100
AcDbEntity
  8
innen
100
AcDbPolyline
 90
        5
 70
     1
 43
0.0
 10
321.8179099969125
 20
113.842115391671
 10
319.7480043383907
 20
112.8205558782523
 10
318.1910017481505
 20
104.0734987036042
 10
320.7634455056304
 20
100.2671348333442
 10
324.5398355752472
 20
105.4648898498139
  0
LWPOLYLINE
  5
12EC
330
1F
100
AcDbEntity
  8
innen
100
AcDbPolyline
 90
        5
 70
     1
 43
0.0
 10
290.8496811208972
 20
107.0962402719034
 10
284.8269408654517
 20
125.6323288047706
 10
296.617575796368
 20
132.0987388580748
 10
303.0655406119616
 20
121.3119113605417
 10
304.1893656190875
 20
108.7951659737397
  0
LWPOLYLINE
  5
12ED
330
1F
100
AcDbEntity
  8
innen
100
AcDbPolyline
 90
        5
 70
     1
 43
0.0
 10
304.370591639158
 20
185.7815010473039
 10
320.1383303333254
 20
197.2374337790916
 10
329.9317583196794
 20
188.0221041958557
 10
321.6654064451502
 20
178.5564122290159
 10
310.1085552081313
 20
173.6197040940261
  0
LWPOLYLINE
  5
12EE
330
1F
100
AcDbEntity
  8
innen
100
AcDbPolyline
 90
        5
 70
     1
 43
0.0
 10
383.38291276555
 20
197.2374337790915
 10
399.1506514597174
 20
185.7815010473013
 10
393.4126878907421
 20
173.619704094025
 10
381.8558366537245
 20
178.5564122290143
 10
373.5894847791943
 20
188.022104195854
  0
LWPOLYLINE
  5
12EF
330
1F
100
AcDbEntity
  8
innen
100
AcDbPolyline
 90
        5
 70
     1
 43
0.0
 10
418.6943022334231
 20
125.6323288047688
 10
412.6715619779771
 20
107.0962402719035
 10
399.3318774797871
 20
108.7951659737393
 10
400.4557024869131
 20
121.3119113605408
 10
406.9036673025058
 20
132.0987388580742
  0
LWPOLYLINE
  5
12F0
330
1F
100
AcDbEntity
  8
innen
100
AcDbPolyline
 90
        5
 70
     1
 43
0.0
 10
361.5056199881594
 20
69.92200743084476
 10
342.0156231107142
 20
69.92200743084686
 10
339.5092082606061
 20
83.13379821221838
 10
351.7606215494366
 20
85.93286415480105
 10
364.0120348382666
 20
83.13379821221935
  0
DIMENSION
  5
12F6
102
{ACAD_XDICTIONARY
360
12F7
102
}
330
1F
100
AcDbEntity
  8
bemassung
100
AcDbDimension
280
     0
  2
*D8
 10
452.645040747989
 20
250.7334254910974
 30
0.0
 11
256.2315339131105
 21
252.8596754910974
 31
0.0
 70
    32
 71
     5
 42
392.827013669757
 73
     0
 74
     0
 75
     0
  3
ISO-25
100
AcDbAlignedDimension
 13
59.81802707823206
 23
149.6544940473691
 33
0.0
 14
452.645040747989
 24
104.3545674261529
 34
0.0
100
AcDbRotatedDimension
1001
ACAD
1000
DSTYLE
1002
{
1070
   144
1040
1.0
1002
}
  0
DIMENSION
  5
1305
102
{ACAD_XDICTIONARY
360
1306
102
}
330
1F
100
AcDbEntity
  8
bemassung
100
AcDbDimension
280
     0
  2
*D9
 10
37.99769097773738
 20
31.05774646534019
 30
0.0
 11
37.99769097773739
 21
104.91390025561
 31
0.0
 70
   160
 71
     5
 42
191.8935685428415
 73
     0
 74
     0
 75
     0
  3
ISO-25
100
AcDbAlignedDimension
 13
160.7024462768316
 23
222.9513150081817
 33
0.0
 14
98.35244627671861
 24
31.05774646534019
 34
0.0
 50
90.0
100
AcDbRotatedDimension
1001
ACAD
1000
DSTYLE
1002
{
1070
   144
1040
1.0
1002
}
  0
LWPOLYLINE
  5
1344
330
1F
100
AcDbEntity
  8
kleinteile
100
AcDbPolyline
 90
       17
 70
     1
 43
0.0
 10
250.5582244403731
 20
98.52142279878872
 42
0.4142135623730728
 10
248.0380774190335
 20
97.23734375494878
 10
247.7290604246573
 20
96.28628723865332
 10
250.5822299735428
 20
95.35923625552795
 10
249.6582691603617
 20
92.51557727180553
 10
246.8050996114762
 20
93.44262825493088
 10
246.4960826171009
 20
92.49157173863541
 42
0.4142135623731144
 10
247.7801616609413
 20
89.9714247172953
 10
249.4843430061328
 20
89.41770263228973
 10
249.4843430061328
 20
87.6258203245695
 42
0.4142135623730951
 10
251.4843430061323
 20
85.6258203245695
 10
252.4843430061328
 20
85.62582032456903
 10
252.4843430061328
 20
88.62582032456903
 10
255.4743430061326
 20
88.62582032456903
 10
255.4743430061326
 20
85.62582032456903
 10
256.474343006133
 20
85.6258203245695
 42
0.4142135623730946
 10
258.4743430061326
 20
87.6258203245695
 42
0.3249196962328683
  0
LWPOLYLINE
  5
1349
330
1F
100
AcDbEntity
  8
kleinteile
100
AcDbPolyline
 90
       17
 70
     1
 43
0.0
 10
246.6199280772822
 20
84.51859128557645
 42
0.4142135623730728
 10
244.0997810559425
 20
83.23451224173651
 10
243.7907640615663
 20
82.28345572544104
 10
246.6439336104519
 20
81.35640474231568
 10
245.7199727972707
 20
78.51274575859325
 10
242.8668032483853
 20
79.43979674171861
 10
242.55778625401
 20
78.48874022542314
 42
0.4142135623731144
 10
243.8418652978503
 20
75.96859320408304
 10
245.5460466430418
 20
75.41487111907746
 10
245.5460466430418
 20
73.62298881135723
 42
0.4142135623730951
 10
247.5460466430414
 20
71.62298881135723
 10
248.5460466430418
 20
71.62298881135676
 10
248.5460466430418
 20
74.62298881135676
 10
251.5360466430417
 20
74.62298881135676
 10
251.5360466430417
 20
71.62298881135676
 10
252.5360466430421
 20
71.62298881135723
 42
0.4142135623730946
 10
254.5360466430417
 20
73.62298881135723
 42
0.3249196962328683
  0
LWPOLYLINE
  5
134A
330
1F
100
AcDbEntity
  8
kleinteile
100
AcDbPolyline
 90
       17
 70
     1
 43
0.0
 10
242.4628374717973
 20
71.60973098433392
 42
0.4142135623730728
 10
239.9426904504576
 20
70.32565194049398
 10
239.6336734560815
 20
69.37459542419852
 10
242.486843004967
 20
68.44754444107315
 10
241.5628821917858
 20
65.60388545735073
 10
238.7097126429004
 20
66.53093644047608
 10
238.4006956485251
 20
65.57987992418062
 42
0.4142135623731144
 10
239.6847746923655
 20
63.05973290284051
 10
241.388956037557
 20
62.50601081783493
 10
241.388956037557
 20
60.7141285101147
 42
0.4142135623730951
 10
243.3889560375565
 20
58.7141285101147
 10
244.388956037557
 20
58.71412851011424
 10
244.388956037557
 20
61.71412851011424
 10
247.3789560375568
 20
61.71412851011424
 10
247.3789560375568
 20
58.71412851011424
 10
248.3789560375572
 20
58.7141285101147
 42
0.4142135623730946
 10
250.3789560375568
 20
60.7141285101147
 42
0.3249196962328683
  0
LWPOLYLINE
  5
134B
330
1F
100
AcDbEntity
  8
kleinteile
100
AcDbPolyline
 90
       17
 70
     1
 43
0.0
 10
237.8681583815245
 20
58.48207644069741
 42
0.4142135623730728
 10
235.3480113601848
 20
57.19799739685747
 10
235.0389943658087
 20
56.24694088056201
 10
237.8921639146942
 20
55.31988989743664
 10
236.968203101513
 20
52.47623091371422
 10
234.1150335526276
 20
53.40328189683957
 10
233.8060165582523
 20
52.45222538054411
 42
0.4142135623731144
 10
235.0900956020927
 20
49.932078359204
 10
236.7942769472842
 20
49.37835627419842
 10
236.7942769472842
 20
47.5864739664782
 42
0.4142135623730951
 10
238.7942769472837
 20
45.5864739664782
 10
239.7942769472842
 20
45.58647396647773
 10
239.7942769472842
 20
48.58647396647773
 10
242.784276947284
 20
48.58647396647773
 10
242.784276947284
 20
45.58647396647773
 10
243.7842769472844
 20
45.5864739664782
 42
0.4142135623730946
 10
245.784276947284
 20
47.5864739664782
 42
0.3249196962328683
  0
LWPOLYLINE
  5
134C
330
1F
100
AcDbEntity
  8
kleinteile
100
AcDbPolyline
 90
       17
 70
     1
 43
0.0
 10
234.1486562608275
 20
44.04165644269726
 42
0.4142135623730728
 10
231.6285092394878
 20
42.75757739885732
 10
231.3194922451117
 20
41.80652088256186
 10
234.1726617939972
 20
40.87946989943649
 10
233.248700980816
 20
38.03581091571407
 10
230.3955314319306
 20
38.96286189883942
 10
230.0865144375553
 20
38.01180538254395
 42
0.4142135623731144
 10
231.3705934813957
 20
35.49165836120385
 10
233.0747748265872
 20
34.93793627619827
 10
233.0747748265872
 20
33.14605396847804
 42
0.4142135623730951
 10
235.0747748265867
 20
31.14605396847804
 10
236.0747748265872
 20
31.14605396847757
 10
236.0747748265872
 20
34.14605396847757
 10
239.064774826587
 20
34.14605396847757
 10
239.064774826587
 20
31.14605396847757
 10
240.0647748265874
 20
31.14605396847804
 42
0.4142135623730946
 10
242.064774826587
 20
33.14605396847804
 42
0.3249196962328683
  0
LWPOLYLINE
  5
134D
330
1F
100
AcDbEntity
  8
kleinteile
100
AcDbPolyline
 90
       17
 70
     1
 43
0.0
 10
249.4642532284034
 20
43.60406795790938
 42
0.4142135623730728
 10
246.9441062070637
 20
42.31998891406944
 10
246.6350892126875
 20
41.36893239777397
 10
249.4882587615731
 20
40.44188141464861
 10
248.5642979483919
 20
37.59822243092619
 10
245.7111283995065
 20
38.52527341405154
 10
245.4021114051312
 20
37.57421689775607
 42
0.4142135623731144
 10
246.6861904489716
 20
35.05406987641597
 10
248.3903717941631
 20
34.50034779141039
 10
248.3903717941631
 20
32.70846548369016
 42
0.4142135623730951
 10
250.3903717941626
 20
30.70846548369016
 10
251.3903717941631
 20
30.70846548368969
 10
251.3903717941631
 20
33.70846548368969
 10
254.3803717941629
 20
33.70846548368969
 10
254.3803717941629
 20
30.70846548368969
 10
255.3803717941633
 20
30.70846548369016
 42
0.4142135623730946
 10
257.3803717941629
 20
32.70846548369016
 42
0.3249196962328683
  0
LWPOLYLINE
  5
134E
330
1F
100
AcDbEntity
  8
kleinteile
100
AcDbPolyline
 90
       17
 70
     1
 43
0.0
 10
253.6213438338883
 20
56.95051674393982
 42
0.4142135623730728
 10
251.1011968125486
 20
55.66643770009988
 10
250.7921798181724
 20
54.71538118380441
 10
253.645349367058
 20
53.78833020067904
 10
252.7213885538768
 20
50.94467121695662
 10
249.8682190049914
 20
51.87172220008198
 10
249.559202010616
 20
50.92066568378651
 42
0.4142135623731144
 10
250.8432810544564
 20
48.4005186624464
 10
252.5474623996479
 20
47.84679657744083
 10
252.5474623996479
 20
46.0549142697206
 42
0.4142135623730951
 10
254.5474623996475
 20
44.0549142697206
 10
255.5474623996479
 20
44.05491426972013
 10
255.5474623996479
 20
47.05491426972013
 10
258.5374623996478
 20
47.05491426972013
 10
258.5374623996478
 20
44.05491426972013
 10
259.5374623996482
 20
44.0549142697206
 42
0.4142135623730946
 10
261.5374623996478
 20
46.0549142697206
 42
0.3249196962328683
  0
LWPOLYLINE
  5
134F
330
1F
100
AcDbEntity
  8
kleinteile
100
AcDbPolyline
 90
       17
 70
     1
 43
0.0
 10
258.2160229241611
 20
70.29696552997025
 42
0.4142135623730728
 10
255.6958759028215
 20
69.01288648613031
 10
255.3868589084453
 20
68.06182996983485
 10
258.2400284573308
 20
67.13477898670948
 10
257.3160676441497
 20
64.29112000298706
 10
254.4628980952642
 20
65.21817098611241
 10
254.1538811008889
 20
64.26711446981695
 42
0.4142135623731144
 10
255.4379601447293
 20
61.74696744847684
 10
257.1421414899208
 20
61.19324536347126
 10
257.1421414899208
 20
59.40136305575103
 42
0.4142135623730951
 10
259.1421414899203
 20
57.40136305575103
 10
260.1421414899208
 20
57.40136305575056
 10
260.1421414899208
 20
60.40136305575056
 10
263.1321414899206
 20
60.40136305575056
 10
263.1321414899206
 20
57.40136305575056
 10
264.132141489921
 20
57.40136305575103
 42
0.4142135623730946
 10
266.1321414899206
 20
59.40136305575103
 42
0.3249196962328683
  0
LWPOLYLINE
  5
1350
330
1F
100
AcDbEntity
  8
kleinteile
100
AcDbPolyline
 90
       17
 70
     1
 43
0.0
 10
262.5919077720399
 20
84.29979704318252
 42
0.4142135623730728
 10
260.0717607507002
 20
83.01571799934258
 10
259.762743756324
 20
82.06466148304712
 10
262.6159133052096
 20
81.13761049992175
 10
261.6919524920284
 20
78.29395151619933
 10
258.838782943143
 20
79.22100249932468
 10
258.5297659487676
 20
78.26994598302922
 42
0.4142135623731144
 10
259.813844992608
 20
75.74979896168911
 10
261.5180263377995
 20
75.19607687668353
 10
261.5180263377995
 20
73.4041945689633
 42
0.4142135623730951
 10
263.5180263377991
 20
71.4041945689633
 10
264.5180263377995
 20
71.40419456896284
 10
264.5180263377995
 20
74.40419456896284
 10
267.5080263377994
 20
74.40419456896284
 10
267.5080263377994
 20
71.40419456896284
 10
268.5080263377998
 20
71.4041945689633
 42
0.4142135623730946
 10
270.5080263377994
 20
73.4041945689633
 42
0.3249196962328683
  0
LWPOLYLINE
  5
1351
330
1F
100
AcDbEntity
  8
kleinteile
100
AcDbPolyline
 90
       17
 70
     1
 43
0.0
 10
277.6887104972218
 20
73.36008492348545
 42
0.4142135623730728
 10
275.1685634758822
 20
72.0760058796455
 10
274.859546481506
 20
71.12494936335004
 10
277.7127160303916
 20
70.19789838022467
 10
276.7887552172104
 20
67.35423939650225
 10
273.935585668325
 20
68.2812903796276
 10
273.6265686739496
 20
67.33023386333214
 42
0.4142135623731144
 10
274.91064771779
 20
64.81008684199203
 10
276.6148290629815
 20
64.25636475698646
 10
276.6148290629815
 20
62.46448244926623
 42
0.4142135623730951
 10
278.6148290629811
 20
60.46448244926623
 10
279.6148290629815
 20
60.46448244926576
 10
279.6148290629815
 20
63.46448244926576
 10
282.6048290629814
 20
63.46448244926576
 10
282.6048290629814
 20
60.46448244926576
 10
283.6048290629818
 20
60.46448244926623
 42
0.4142135623730946
 10
285.6048290629814
 20
62.46448244926623
 42
0.3249196962328683
  0
LWPOLYLINE
  5
1352
330
1F
100
AcDbEntity
  8
kleinteile
100
AcDbPolyline
 90
       17
 70
     1
 43
0.0
 10
272.2188544373733
 20
60.67001886463684
 42
0.4142135623730728
 10
269.6987074160336
 20
59.38593982079691
 10
269.3896904216575
 20
58.43488330450144
 10
272.242859970543
 20
57.50783232137607
 10
271.3188991573618
 20
54.66417333765365
 10
268.4657296084764
 20
55.59122432077901
 10
268.1567126141011
 20
54.64016780448354
 42
0.4142135623731144
 10
269.4407916579415
 20
52.12002078314343
 10
271.144973003133
 20
51.56629869813786
 10
271.144973003133
 20
49.77441639041763
 42
0.4142135623730951
 10
273.1449730031325
 20
47.77441639041763
 10
274.144973003133
 20
47.77441639041716
 10
274.144973003133
 20
50.77441639041716
 10
277.1349730031328
 20
50.77441639041716
 10
277.1349730031328
 20
47.77441639041716
 10
278.1349730031332
 20
47.77441639041763
 42
0.4142135623730946
 10
280.1349730031328
 20
49.77441639041763
 42
0.3249196962328683
  0
LWPOLYLINE
  5
1353
330
1F
100
AcDbEntity
  8
kleinteile
100
AcDbPolyline
 90
       17
 70
     1
 43
0.0
 10
266.7489983775248
 20
47.54236432100033
 42
0.4142135623730728
 10
264.2288513561851
 20
46.2582852771604
 10
263.919834361809
 20
45.30722876086493
 10
266.7730039106945
 20
44.38017777773956
 10
265.8490430975133
 20
41.53651879401714
 10
262.9958735486279
 20
42.4635697771425
 10
262.6868565542526
 20
41.51251326084703
 42
0.4142135623731144
 10
263.970935598093
 20
38.99236623950692
 10
265.6751169432845
 20
38.43864415450135
 10
265.6751169432845
 20
36.64676184678112
 42
0.4142135623730951
 10
267.675116943284
 20
34.64676184678112
 10
268.6751169432845
 20
34.64676184678065
 10
268.6751169432845
 20
37.64676184678065
 10
271.6651169432843
 20
37.64676184678065
 10
271.6651169432843
 20
34.64676184678065
 10
272.6651169432847
 20
34.64676184678112
 42
0.4142135623730946
 10
274.6651169432843
 20
36.64676184678112
 42
0.3249196962328683
  0
LWPOLYLINE
  5
1354
330
1F
100
AcDbEntity
  8
kleinteile
100
AcDbPolyline
 90
       17
 70
     1
 43
0.0
 10
281.1894183755249
 20
44.04165644269726
 42
0.4142135623730728
 10
278.6692713541852
 20
42.75757739885732
 10
278.3602543598091
 20
41.80652088256186
 10
281.2134239086946
 20
40.87946989943649
 10
280.2894630955134
 20
38.03581091571407
 10
277.436293546628
 20
38.96286189883942
 10
277.1272765522527
 20
38.01180538254395
 42
0.4142135623731144
 10
278.4113555960931
 20
35.49165836120385
 10
280.1155369412846
 20
34.93793627619827
 10
280.1155369412846
 20
33.14605396847804
 42
0.4142135623730951
 10
282.1155369412841
 20
31.14605396847804
 10
283.1155369412846
 20
31.14605396847757
 10
283.1155369412846
 20
34.14605396847757
 10
286.1055369412844
 20
34.14605396847757
 10
286.1055369412844
 20
31.14605396847757
 10
287.1055369412848
 20
31.14605396847804
 42
0.4142135623730946
 10
289.1055369412844
 20
33.14605396847804
 42
0.3249196962328683
  0
LWPOLYLINE
  5
1355
330
1F
100
AcDbEntity
  8
kleinteile
100
AcDbPolyline
 90
       17
 70
     1
 43
0.0
 10
287.5344514049493
 20
55.20016280478829
 42
0.4142135623730728
 10
285.0143043836096
 20
53.91608376094835
 10
284.7052873892334
 20
52.96502724465289
 10
287.558456938119
 20
52.03797626152752
 10
286.6344961249378
 20
49.1943172778051
 10
283.7813265760524
 20
50.12136826093045
 10
283.4723095816771
 20
49.17031174463499
 42
0.4142135623731144
 10
284.7563886255174
 20
46.65016472329488
 10
286.4605699707089
 20
46.0964426382893
 10
286.4605699707089
 20
44.30456033056907
 42
0.4142135623730951
 10
288.4605699707085
 20
42.30456033056907
 10
289.4605699707089
 20
42.30456033056861
 10
289.4605699707089
 20
45.30456033056861
 10
292.4505699707088
 20
45.30456033056861
 10
292.4505699707088
 20
42.30456033056861
 10
293.4505699707092
 20
42.30456033056907
 42
0.4142135623730946
 10
295.4505699707088
 20
44.30456033056907
 42
0.3249196962328683
  0
LWPOLYLINE
  5
1356
330
1F
100
AcDbEntity
  8
kleinteile
100
AcDbPolyline
 90
       17
 70
     1
 43
0.0
 10
293.0043074647978
 20
68.32781734842477
 42
0.4142135623730728
 10
290.4841604434581
 20
67.04373830458483
 10
290.1751434490819
 20
66.09268178828937
 10
293.0283129979675
 20
65.165630805164
 10
292.1043521847863
 20
62.32197182144158
 10
289.2511826359009
 20
63.24902280456693
 10
288.9421656415255
 20
62.29796628827147
 42
0.4142135623731144
 10
290.2262446853659
 20
59.77781926693136
 10
291.9304260305574
 20
59.22409718192579
 10
291.9304260305574
 20
57.43221487420556
 42
0.4142135623730951
 10
293.930426030557
 20
55.43221487420556
 10
294.9304260305574
 20
55.43221487420509
 10
294.9304260305574
 20
58.43221487420509
 10
297.9204260305573
 20
58.43221487420509
 10
297.9204260305573
 20
55.43221487420509
 10
298.9204260305577
 20
55.43221487420556
 42
0.4142135623730946
 10
300.9204260305573
 20
57.43221487420556
 42
0.3249196962328683
  0
LWPOLYLINE
  5
1357
330
1F
100
AcDbEntity
  8
kleinteile
100
AcDbPolyline
 90
       17
 70
     1
 43
0.0
 10
307.225933220404
 20
58.70087068309137
 42
0.4142135623730728
 10
304.7057861990643
 20
57.41679163925143
 10
304.3967692046882
 20
56.46573512295596
 10
307.2499387535737
 20
55.53868413983059
 10
306.3259779403925
 20
52.69502515610817
 10
303.4728083915071
 20
53.62207613923353
 10
303.1637913971318
 20
52.67101962293806
 42
0.4142135623731144
 10
304.4478704409722
 20
50.15087260159795
 10
306.1520517861637
 20
49.59715051659238
 10
306.1520517861637
 20
47.80526820887215
 42
0.4142135623730951
 10
308.1520517861632
 20
45.80526820887215
 10
309.1520517861637
 20
45.80526820887168
 10
309.1520517861637
 20
48.80526820887168
 10
312.1420517861635
 20
48.80526820887168
 10
312.1420517861635
 20
45.80526820887168
 10
313.1420517861639
 20
45.80526820887215
 42
0.4142135623730946
 10
315.1420517861635
 20
47.80526820887215
 42
0.3249196962328683
  0
LWPOLYLINE
  5
1358
330
1F
100
AcDbEntity
  8
kleinteile
100
AcDbPolyline
 90
       17
 70
     1
 43
0.0
 10
300.8809001909797
 20
47.32357007860638
 42
0.4142135623730728
 10
298.36075316964
 20
46.03949103476644
 10
298.0517361752638
 20
45.08843451847098
 10
300.9049057241494
 20
44.16138353534561
 10
299.9809449109682
 20
41.31772455162319
 10
297.1277753620828
 20
42.24477553474854
 10
296.8187583677075
 20
41.29371901845307
 42
0.4142135623731144
 10
298.1028374115479
 20
38.77357199711297
 10
299.8070187567394
 20
38.21984991210739
 10
299.8070187567394
 20
36.42796760438716
 42
0.4142135623730951
 10
301.8070187567389
 20
34.42796760438716
 10
302.8070187567394
 20
34.42796760438669
 10
302.8070187567394
 20
37.42796760438669
 10
305.7970187567392
 20
37.42796760438669
 10
305.7970187567392
 20
34.42796760438669
 10
306.7970187567396
 20
34.42796760438716
 42
0.4142135623730946
 10
308.7970187567392
 20
36.42796760438716
 42
0.3249196962328683
  0
LWPOLYLINE
  5
1359
330
1F
100
AcDbEntity
  8
kleinteile
100
AcDbPolyline
 90
       17
 70
     1
 43
0.0
 10
316.4152914009495
 20
43.1664794731215
 42
0.4142135623730728
 10
313.8951443796099
 20
41.88240042928156
 10
313.5861273852337
 20
40.93134391298609
 10
316.4392969341192
 20
40.00429292986072
 10
315.5153361209381
 20
37.1606339461383
 10
312.6621665720526
 20
38.08768492926366
 10
312.3531495776773
 20
37.13662841296819
 42
0.4142135623731144
 10
313.6372286215177
 20
34.61648139162808
 10
315.3414099667092
 20
34.06275930662251
 10
315.3414099667092
 20
32.27087699890228
 42
0.4142135623730951
 10
317.3414099667087
 20
30.27087699890228
 10
318.3414099667092
 20
30.27087699890181
 10
318.3414099667092
 20
33.27087699890181
 10
321.331409966709
 20
33.27087699890181
 10
321.331409966709
 20
30.27087699890181
 10
322.3314099667094
 20
30.27087699890228
 42
0.4142135623730946
 10
324.331409966709
 20
32.27087699890228
 42
0.3249196962328683
  0
LWPOLYLINE
  5
135A
330
1F
100
AcDbEntity
  8
kleinteile
100
AcDbPolyline
 90
       17
 70
     1
 43
0.0
 10
330.1993286717678
 20
43.38527371551545
 42
0.4142135623730728
 10
327.6791816504282
 20
42.10119467167551
 10
327.370164656052
 20
41.15013815538005
 10
330.2233342049375
 20
40.22308717225468
 10
329.2993733917564
 20
37.37942818853226
 10
326.4462038428709
 20
38.30647917165761
 10
326.1371868484956
 20
37.35542265536215
 42
0.4142135623731144
 10
327.421265892336
 20
34.83527563402204
 10
329.1254472375275
 20
34.28155354901646
 10
329.1254472375275
 20
32.48967124129624
 42
0.4142135623730951
 10
331.1254472375271
 20
30.48967124129624
 10
332.1254472375275
 20
30.48967124129577
 10
332.1254472375275
 20
33.48967124129577
 10
335.1154472375273
 20
33.48967124129577
 10
335.1154472375273
 20
30.48967124129577
 10
336.1154472375277
 20
30.48967124129624
 42
0.4142135623730946
 10
338.1154472375273
 20
32.48967124129624
 42
0.3249196962328683
  0
LWPOLYLINE
  5
135B
330
1F
100
AcDbEntity
  8
kleinteile
100
AcDbPolyline
 90
       17
 70
     1
 43
0.0
 10
256.9024179403067
 20
168.22097831445
 42
0.4142135623730728
 10
254.3822709189671
 20
166.93689927061
 10
254.0732539245909
 20
165.9858427543145
 10
256.9264234734765
 20
165.0587917711892
 10
256.0024626602953
 20
162.2151327874668
 10
253.1492931114099
 20
163.1421837705921
 10
252.8402761170345
 20
162.1911272542966
 42
0.4142135623731144
 10
254.1243551608749
 20
159.6709802329565
 10
255.8285365060664
 20
159.117258147951
 10
255.8285365060664
 20
157.3253758402307
 42
0.4142135623730951
 10
257.828536506066
 20
155.3253758402307
 10
258.8285365060664
 20
155.3253758402303
 10
258.8285365060664
 20
158.3253758402303
 10
261.8185365060663
 20
158.3253758402303
 10
261.8185365060663
 20
155.3253758402303
 10
262.8185365060667
 20
155.3253758402307
 42
0.4142135623730946
 10
264.8185365060663
 20
157.3253758402307
 42
0.3249196962328683
  0
LWPOLYLINE
  5
135C
330
1F
100
AcDbEntity
  8
kleinteile
100
AcDbPolyline
 90
       17
 70
     1
 43
0.0
 10
243.4315133882611
 20
178.013516983923
 42
0.4142135623730728
 10
240.9113663669215
 20
176.7294379400831
 10
240.6023493725453
 20
175.7783814237876
 10
243.4555189214308
 20
174.8513304406623
 10
242.5315581082497
 20
172.0076714569398
 10
239.6783885593642
 20
172.9347224400652
 10
239.3693715649889
 20
171.9836659237697
 42
0.4142135623731144
 10
240.6534506088293
 20
169.4635189024296
 10
242.3576319540208
 20
168.909796817424
 10
242.3576319540208
 20
167.1179145097038
 42
0.4142135623730951
 10
244.3576319540203
 20
165.1179145097038
 10
245.3576319540208
 20
165.1179145097033
 10
245.3576319540208
 20
168.1179145097033
 10
248.3476319540206
 20
168.1179145097033
 10
248.3476319540206
 20
165.1179145097033
 10
249.347631954021
 20
165.1179145097038
 42
0.4142135623730946
 10
251.3476319540206
 20
167.1179145097038
 42
0.3249196962328683
  0
LWPOLYLINE
  5
135D
330
1F
100
AcDbEntity
  8
kleinteile
100
AcDbPolyline
 90
       17
 70
     1
 43
0.0
 10
261.8917661963793
 20
181.7507526054441
 42
0.4142135623730728
 10
259.3716191750397
 20
180.4666735616041
 10
259.0626021806635
 20
179.5156170453087
 10
261.915771729549
 20
178.5885660621833
 10
260.9918109163679
 20
175.7449070784609
 10
258.1386413674824
 20
176.6719580615862
 10
257.8296243731071
 20
175.7209015452908
 42
0.4142135623731144
 10
259.1137034169475
 20
173.2007545239506
 10
260.817884762139
 20
172.6470324389451
 10
260.817884762139
 20
170.8551501312249
 42
0.4142135623730951
 10
262.8178847621385
 20
168.8551501312249
 10
263.817884762139
 20
168.8551501312244
 10
263.817884762139
 20
171.8551501312244
 10
266.8078847621388
 20
171.8551501312244
 10
266.8078847621388
 20
168.8551501312244
 10
267.8078847621392
 20
168.8551501312249
 42
0.4142135623730946
 10
269.8078847621388
 20
170.8551501312249
 42
0.3249196962328683
  0
LWPOLYLINE
  5
135E
330
1F
100
AcDbEntity
  8
kleinteile
100
AcDbPolyline
 90
       17
 70
     1
 43
0.0
 10
266.6177218320884
 20
195.7535841186564
 42
0.4142135623730728
 10
264.0975748107488
 20
194.4695050748164
 10
263.7885578163726
 20
193.518448558521
 10
266.6417273652581
 20
192.5913975753956
 10
265.717766552077
 20
189.7477385916732
 10
262.8645970031915
 20
190.6747895747985
 10
262.5555800088162
 20
189.7237330585031
 42
0.4142135623731144
 10
263.8396590526566
 20
187.2035860371629
 10
265.5438403978481
 20
186.6498639521574
 10
265.5438403978481
 20
184.8579816444371
 42
0.4142135623730951
 10
267.5438403978476
 20
182.8579816444371
 10
268.5438403978481
 20
182.8579816444367
 10
268.5438403978481
 20
185.8579816444367
 10
271.5338403978479
 20
185.8579816444367
 10
271.5338403978479
 20
182.8579816444367
 10
272.5338403978483
 20
182.8579816444371
 42
0.4142135623730946
 10
274.5338403978479
 20
184.8579816444371
 42
0.3249196962328683
  0
LWPOLYLINE
  5
1368
330
1F
100
AcDbEntity
  8
kleinteile
100
AcDbPolyline
 90
       17
 70
     1
 43
0.0
 10
213.2319266879667
 20
207.6559909048867
 42
0.4142135623730728
 10
210.711779666627
 20
206.3719118610468
 10
210.4027626722508
 20
205.4208553447513
 10
213.2559322211364
 20
204.493804361626
 10
212.3319714079552
 20
201.6501453779036
 10
209.4788018590698
 20
202.5771963610289
 10
209.1697848646945
 20
201.6261398447334
 42
0.4142135623731144
 10
210.4538639085349
 20
199.1059928233933
 10
212.1580452537264
 20
198.5522707383878
 10
212.1580452537264
 20
196.7603884306675
 42
0.4142135623730951
 10
214.1580452537259
 20
194.7603884306675
 10
215.1580452537264
 20
194.7603884306671
 10
215.1580452537264
 20
197.7603884306671
 10
218.1480452537262
 20
197.7603884306671
 10
218.1480452537262
 20
194.7603884306671
 10
219.1480452537266
 20
194.7603884306675
 42
0.4142135623730946
 10
221.1480452537262
 20
196.7603884306675
 42
0.3249196962328683
  0
LWPOLYLINE
  5
1369
330
1F
100
AcDbEntity
  8
kleinteile
100
AcDbPolyline
 90
       17
 70
     1
 43
0.0
 10
226.4005093968159
 20
206.612688603835
 42
0.4142135623730728
 10
223.8803623754763
 20
205.3286095599951
 10
223.5713453811001
 20
204.3775530436996
 10
226.4245149299857
 20
203.4505020605743
 10
225.5005541168045
 20
200.6068430768518
 10
222.6473845679191
 20
201.5338940599772
 10
222.3383675735437
 20
200.5828375436817
 42
0.4142135623731144
 10
223.6224466173841
 20
198.0626905223416
 10
225.3266279625756
 20
197.5089684373361
 10
225.3266279625756
 20
195.7170861296158
 42
0.4142135623730951
 10
227.3266279625752
 20
193.7170861296158
 10
228.3266279625756
 20
193.7170861296154
 10
228.3266279625756
 20
196.7170861296154
 10
231.3166279625755
 20
196.7170861296154
 10
231.3166279625755
 20
193.7170861296154
 10
232.3166279625759
 20
193.7170861296158
 42
0.4142135623730946
 10
234.3166279625755
 20
195.7170861296158
 42
0.3249196962328683
  0
LWPOLYLINE
  5
136A
330
1F
100
AcDbEntity
  8
kleinteile
100
AcDbPolyline
 90
       17
 70
     1
 43
0.0
 10
240.3624127448155
 20
207.3059201170564
 42
0.4142135623730728
 10
237.8422657234758
 20
206.0218410732165
 10
237.5332487290996
 20
205.070784556921
 10
240.3864182779852
 20
204.1437335737957
 10
239.462457464804
 20
201.3000745900733
 10
236.6092879159186
 20
202.2271255731986
 10
236.3002709215432
 20
201.2760690569031
 42
0.4142135623731144
 10
237.5843499653836
 20
198.755922035563
 10
239.2885313105751
 20
198.2021999505575
 10
239.2885313105751
 20
196.4103176428372
 42
0.4142135623730951
 10
241.2885313105747
 20
194.4103176428372
 10
242.2885313105751
 20
194.4103176428368
 10
242.2885313105751
 20
197.4103176428368
 10
245.278531310575
 20
197.4103176428368
 10
245.278531310575
 20
194.4103176428368
 10
246.2785313105754
 20
194.4103176428372
 42
0.4142135623730946
 10
248.278531310575
 20
196.4103176428372
 42
0.3249196962328683
  0
LWPOLYLINE
  5
136C
330
1F
100
AcDbEntity
  8
kleinteile
100
AcDbPolyline
 90
       17
 70
     1
 43
0.0
 10
249.8612157227419
 20
193.4884558249423
 42
0.4142135623730728
 10
247.3410687014022
 20
192.2043767811023
 10
247.032051707026
 20
191.2533202648069
 10
249.8852212559116
 20
190.3262692816815
 10
248.9612604427304
 20
187.4826102979591
 10
246.108090893845
 20
188.4096612810844
 10
245.7990738994696
 20
187.458604764789
 42
0.4142135623731144
 10
247.08315294331
 20
184.9384577434489
 10
248.7873342885015
 20
184.3847356584433
 10
248.7873342885015
 20
182.592853350723
 42
0.4142135623730951
 10
250.7873342885011
 20
180.592853350723
 10
251.7873342885015
 20
180.5928533507226
 10
251.7873342885015
 20
183.5928533507226
 10
254.7773342885014
 20
183.5928533507226
 10
254.7773342885014
 20
180.5928533507226
 10
255.7773342885018
 20
180.592853350723
 42
0.4142135623730946
 10
257.7773342885014
 20
182.592853350723
 42
0.3249196962328683
  0
LWPOLYLINE
  5
136D
330
1F
100
AcDbEntity
  8
kleinteile
100
AcDbPolyline
 90
       17
 70
     1
 43
0.0
 10
236.8617048665124
 20
192.6029470281836
 42
0.4142135623730728
 10
234.3415578451727
 20
191.3188679843437
 10
234.0325408507966
 20
190.3678114680482
 10
236.8857103996821
 20
189.4407604849228
 10
235.9617495865009
 20
186.5971015012004
 10
233.1085800376155
 20
187.5241524843258
 10
232.7995630432402
 20
186.5730959680303
 42
0.4142135623731144
 10
234.0836420870806
 20
184.0529489466902
 10
235.7878234322721
 20
183.4992268616846
 10
235.7878234322721
 20
181.7073445539644
 42
0.4142135623730951
 10
237.7878234322716
 20
179.7073445539644
 10
238.7878234322721
 20
179.7073445539639
 10
238.7878234322721
 20
182.7073445539639
 10
241.7778234322719
 20
182.7073445539639
 10
241.7778234322719
 20
179.7073445539639
 10
242.7778234322723
 20
179.7073445539644
 42
0.4142135623730946
 10
244.7778234322719
 20
181.7073445539644
 42
0.3249196962328683
  0
LWPOLYLINE
  5
136E
330
1F
100
AcDbEntity
  8
kleinteile
100
AcDbPolyline
 90
       17
 70
     1
 43
0.0
 10
222.683837959385
 20
193.8281947855897
 42
0.4142135623730728
 10
220.1636909380453
 20
192.5441157417497
 10
219.8546739436692
 20
191.5930592254543
 10
222.7078434925547
 20
190.6660082423289
 10
221.7838826793735
 20
187.8223492586065
 10
218.9307131304881
 20
188.7494002417318
 10
218.6216961361128
 20
187.7983437254364
 42
0.4142135623731144
 10
219.9057751799532
 20
185.2781967040962
 10
221.6099565251447
 20
184.7244746190907
 10
221.6099565251447
 20
182.9325923113704
 42
0.4142135623730951
 10
223.6099565251442
 20
180.9325923113704
 10
224.6099565251447
 20
180.93259231137
 10
224.6099565251447
 20
183.93259231137
 10
227.5999565251445
 20
183.93259231137
 10
227.5999565251445
 20
180.93259231137
 10
228.5999565251449
 20
180.9325923113704
 42
0.4142135623730946
 10
230.5999565251445
 20
182.9325923113704
 42
0.3249196962328683
  0
LWPOLYLINE
  5
1372
330
1F
100
AcDbEntity
  8
kleinteile
100
AcDbPolyline
 90
       17
 70
     1
 43
0.0
 10
199.1581936677826
 20
209.4611876064035
 42
0.4142135623730728
 10
196.6380466464429
 20
208.1771085625636
 10
196.3290296520667
 20
207.2260520462681
 10
199.1821992009523
 20
206.2990010631428
 10
198.2582383877711
 20
203.4553420794203
 10
195.4050688388857
 20
204.3823930625457
 10
195.0960518445104
 20
203.4313365462502
 42
0.4142135623731144
 10
196.3801308883507
 20
200.9111895249101
 10
198.0843122335422
 20
200.3574674399045
 10
198.0843122335422
 20
198.5655851321843
 42
0.4142135623730951
 10
200.0843122335418
 20
196.5655851321843
 10
201.0843122335422
 20
196.5655851321838
 10
201.0843122335422
 20
199.5655851321838
 10
204.0743122335421
 20
199.5655851321838
 10
204.0743122335421
 20
196.5655851321838
 10
205.0743122335425
 20
196.5655851321843
 42
0.4142135623730946
 10
207.0743122335421
 20
198.5655851321843
 42
0.3249196962328683
  0
LWPOLYLINE
  5
1373
330
1F
100
AcDbEntity
  8
kleinteile
100
AcDbPolyline
 90
       17
 70
     1
 43
0.0
 10
185.9264052372028
 20
220.7836454485232
 42
0.4142135623730728
 10
183.4062582158631
 20
219.4995664046833
 10
183.0972412214869
 20
218.5485098883878
 10
185.9504107703725
 20
217.6214589052625
 10
185.0264499571913
 20
214.77779992154
 10
182.1732804083059
 20
215.7048509046654
 10
181.8642634139306
 20
214.7537943883699
 42
0.4142135623731144
 10
183.148342457771
 20
212.2336473670298
 10
184.8525238029625
 20
211.6799252820242
 10
184.8525238029625
 20
209.888042974304
 42
0.4142135623730951
 10
186.852523802962
 20
207.888042974304
 10
187.8525238029625
 20
207.8880429743035
 10
187.8525238029625
 20
210.8880429743035
 10
190.8425238029623
 20
210.8880429743035
 10
190.8425238029623
 20
207.8880429743035
 10
191.8425238029627
 20
207.888042974304
 42
0.4142135623730946
 10
193.8425238029623
 20
209.888042974304
 42
0.3249196962328683
  0
LWPOLYLINE
  5
1374
330
1F
100
AcDbEntity
  8
kleinteile
100
AcDbPolyline
 90
       17
 70
     1
 43
0.0
 10
204.1300862043787
 20
221.1337162363535
 42
0.4142135623730728
 10
201.609939183039
 20
219.8496371925136
 10
201.3009221886629
 20
218.8985806762181
 10
204.1540917375484
 20
217.9715296930928
 10
203.2301309243672
 20
215.1278707093703
 10
200.3769613754818
 20
216.0549216924957
 10
200.0679443811065
 20
215.1038651762002
 42
0.4142135623731144
 10
201.3520234249469
 20
212.5837181548601
 10
203.0562047701384
 20
212.0299960698545
 10
203.0562047701384
 20
210.2381137621343
 42
0.4142135623730951
 10
205.0562047701379
 20
208.2381137621343
 10
206.0562047701384
 20
208.2381137621338
 10
206.0562047701384
 20
211.2381137621338
 10
209.0462047701382
 20
211.2381137621338
 10
209.0462047701382
 20
208.2381137621338
 10
210.0462047701386
 20
208.2381137621343
 42
0.4142135623730946
 10
212.0462047701382
 20
210.2381137621343
 42
0.3249196962328683
  0
LWPOLYLINE
  5
1375
330
1F
100
AcDbEntity
  8
kleinteile
100
AcDbPolyline
 90
       17
 70
     1
 43
0.0
 10
218.132917717591
 20
220.9586808424384
 42
0.4142135623730728
 10
215.6127706962513
 20
219.6746017985984
 10
215.3037537018751
 20
218.723545282303
 10
218.1569232507607
 20
217.7964942991776
 10
217.2329624375795
 20
214.9528353154552
 10
214.3797928886941
 20
215.8798862985805
 10
214.0707758943188
 20
214.9288297822851
 42
0.4142135623731144
 10
215.3548549381591
 20
212.408682760945
 10
217.0590362833507
 20
211.8549606759394
 10
217.0590362833507
 20
210.0630783682192
 42
0.4142135623730951
 10
219.0590362833502
 20
208.0630783682192
 10
220.0590362833507
 20
208.0630783682187
 10
220.0590362833507
 20
211.0630783682187
 10
223.0490362833505
 20
211.0630783682187
 10
223.0490362833505
 20
208.0630783682187
 10
224.0490362833509
 20
208.0630783682192
 42
0.4142135623730946
 10
226.0490362833505
 20
210.0630783682192
 42
0.3249196962328683
  0
LWPOLYLINE
  5
1376
330
1F
100
AcDbEntity
  8
kleinteile
100
AcDbPolyline
 90
       17
 70
     1
 43
0.0
 10
231.0855368673123
 20
221.3087516302687
 42
0.4142135623730728
 10
228.5653898459726
 20
220.0246725864287
 10
228.2563728515965
 20
219.0736160701333
 10
231.109542400482
 20
218.1465650870079
 10
230.1855815873008
 20
215.3029061032855
 10
227.3324120384154
 20
216.2299570864108
 10
227.0233950440401
 20
215.2789005701154
 42
0.4142135623731144
 10
228.3074740878805
 20
212.7587535487753
 10
230.011655433072
 20
212.2050314637697
 10
230.011655433072
 20
210.4131491560495
 42
0.4142135623730951
 10
232.0116554330715
 20
208.4131491560495
 10
233.011655433072
 20
208.413149156049
 10
233.011655433072
 20
211.413149156049
 10
236.0016554330718
 20
211.413149156049
 10
236.0016554330718
 20
208.413149156049
 10
237.0016554330722
 20
208.4131491560495
 42
0.4142135623730946
 10
239.0016554330718
 20
210.4131491560495
 42
0.3249196962328683
  0
LWPOLYLINE
  5
1377
330
1F
100
AcDbEntity
  8
kleinteile
100
AcDbPolyline
 90
       17
 70
     1
 43
0.0
 10
244.2131914109488
 20
221.8338578120141
 42
0.4142135623730728
 10
241.6930443896092
 20
220.5497787681742
 10
241.384027395233
 20
219.5987222518787
 10
244.2371969441185
 20
218.6716712687534
 10
243.3132361309374
 20
215.828012285031
 10
240.4600665820519
 20
216.7550632681563
 10
240.1510495876766
 20
215.8040067518608
 42
0.4142135623731144
 10
241.435128631517
 20
213.2838597305207
 10
243.1393099767085
 20
212.7301376455152
 10
243.1393099767085
 20
210.9382553377949
 42
0.4142135623730951
 10
245.139309976708
 20
208.9382553377949
 10
246.1393099767085
 20
208.9382553377945
 10
246.1393099767085
 20
211.9382553377945
 10
249.1293099767083
 20
211.9382553377945
 10
249.1293099767083
 20
208.9382553377945
 10
250.1293099767087
 20
208.9382553377949
 42
0.4142135623730946
 10
252.1293099767083
 20
210.9382553377949
 42
0.3249196962328683
  0
LWPOLYLINE
  5
1378
330
1F
100
AcDbEntity
  8
kleinteile
100
AcDbPolyline
 90
       17
 70
     1
 43
0.0
 10
257.6909167424157
 20
221.4837870241838
 42
0.4142135623730728
 10
255.170769721076
 20
220.1997079803439
 10
254.8617527266998
 20
219.2486514640484
 10
257.7149222755853
 20
218.3216004809231
 10
256.7909614624042
 20
215.4779414972006
 10
253.9377919135187
 20
216.404992480326
 10
253.6287749191434
 20
215.4539359640305
 42
0.4142135623731144
 10
254.9128539629838
 20
212.9337889426904
 10
256.6170353081753
 20
212.3800668576849
 10
256.6170353081753
 20
210.5881845499646
 42
0.4142135623730951
 10
258.6170353081749
 20
208.5881845499646
 10
259.6170353081753
 20
208.5881845499642
 10
259.6170353081753
 20
211.5881845499642
 10
262.6070353081751
 20
211.5881845499642
 10
262.6070353081751
 20
208.5881845499642
 10
263.6070353081756
 20
208.5881845499646
 42
0.4142135623730946
 10
265.6070353081751
 20
210.5881845499646
 42
0.3249196962328683
  0
LWPOLYLINE
  5
1379
330
1F
100
AcDbEntity
  8
kleinteile
100
AcDbPolyline
 90
       17
 70
     1
 43
0.0
 10
271.868783649543
 20
222.0088932059293
 42
0.4142135623730728
 10
269.3486366282034
 20
220.7248141620894
 10
269.0396196338272
 20
219.7737576457939
 10
271.8927891827127
 20
218.8467066626685
 10
270.9688283695316
 20
216.0030476789461
 10
268.1156588206461
 20
216.9300986620715
 10
267.8066418262708
 20
215.979042145776
 42
0.4142135623731144
 10
269.0907208701112
 20
213.4588951244359
 10
270.7949022153027
 20
212.9051730394303
 10
270.7949022153027
 20
211.1132907317101
 42
0.4142135623730951
 10
272.7949022153023
 20
209.1132907317101
 10
273.7949022153027
 20
209.1132907317096
 10
273.7949022153027
 20
212.1132907317096
 10
276.7849022153025
 20
212.1132907317096
 10
276.7849022153025
 20
209.1132907317096
 10
277.784902215303
 20
209.1132907317101
 42
0.4142135623730946
 10
279.7849022153025
 20
211.1132907317101
 42
0.3249196962328683
  0
LWPOLYLINE
  5
137A
330
1F
100
AcDbEntity
  8
kleinteile
100
AcDbPolyline
 90
       17
 70
     1
 43
0.0
 10
254.3652442580277
 20
207.1308847231413
 42
0.4142135623730728
 10
251.8450972366881
 20
205.8468056793014
 10
251.5360802423119
 20
204.8957491630059
 10
254.3892497911974
 20
203.9686981798805
 10
253.4652889780163
 20
201.1250391961581
 10
250.6121194291308
 20
202.0520901792835
 10
250.3031024347555
 20
201.101033662988
 42
0.4142135623731144
 10
251.5871814785959
 20
198.5808866416479
 10
253.2913628237874
 20
198.0271645566423
 10
253.2913628237874
 20
196.2352822489221
 42
0.4142135623730951
 10
255.291362823787
 20
194.2352822489221
 10
256.2913628237874
 20
194.2352822489216
 10
256.2913628237874
 20
197.2352822489216
 10
259.2813628237873
 20
197.2352822489216
 10
259.2813628237873
 20
194.2352822489216
 10
260.2813628237876
 20
194.2352822489221
 42
0.4142135623730946
 10
262.2813628237873
 20
196.2352822489221
 42
0.3249196962328683
  0
LWPOLYLINE
  5
137B
330
1F
100
AcDbEntity
  8
kleinteile
100
AcDbPolyline
 90
       17
 70
     1
 43
0.0
 10
268.8756610099343
 20
208.5627038043171
 42
0.4142135623730728
 10
266.3555139885947
 20
207.2786247604771
 10
266.0464969942185
 20
206.3275682441817
 10
268.8996665431041
 20
205.4005172610563
 10
267.9757057299229
 20
202.5568582773339
 10
265.1225361810375
 20
203.4839092604592
 10
264.8135191866621
 20
202.5328527441638
 42
0.4142135623731144
 10
266.0975982305025
 20
200.0127057228237
 10
267.801779575694
 20
199.4589836378181
 10
267.801779575694
 20
197.6671013300979
 42
0.4142135623730951
 10
269.8017795756936
 20
195.6671013300979
 10
270.801779575694
 20
195.6671013300974
 10
270.801779575694
 20
198.6671013300974
 10
273.7917795756939
 20
198.6671013300974
 10
273.7917795756939
 20
195.6671013300974
 10
274.7917795756942
 20
195.6671013300979
 42
0.4142135623730946
 10
276.7917795756939
 20
197.6671013300979
 42
0.3249196962328683
  0
CIRCLE
  5
15EC
330
1F
100
AcDbEntity
  8
0
100
AcDbCircle
 10
351.7606215494513
 20
137.1339022668413
 30
0.0
 40
23.0
  0
LINE
  5
1624
330
1F
100
AcDbEntity
  8
aussen
100
AcDbLine
 10
59.81802707823209
 20
149.6544940473692
 30
0.0
 11
78.84792707416821
 21
163.4805256981067
 31
0.0
  0
LINE
  5
1625
330
1F
100
AcDbEntity
  8
aussen
100
AcDbLine
 10
81.14189476172763
 20
165.147190780968
 30
0.0
 11
99.02481091389058
 21
178.1398898902663
 31
0.0
  0
LINE
  5
1626
330
1F
100
AcDbEntity
  8
aussen
100
AcDbLine
 10
101.3187786014486
 20
179.8065549731325
 30
0.0
 11
119.201694753623
 21
192.7992540824129
 31
0.0
  0
LINE
  5
1627
330
1F
100
AcDbEntity
  8
aussen
100
AcDbLine
 10
121.4956624411688
 20
194.465919165295
 30
0.0
 11
139.3785785933443
 21
207.4586182745736
 31
0.0
  0
LINE
  5
1628
330
1F
100
AcDbEntity
  8
aussen
100
AcDbLine
 10
141.6725462808866
 20
209.1252833574553
 30
0.0
 11
160.7024462768316
 21
222.9513150081817
 31
0.0
  0
LINE
  5
1629
330
1F
100
AcDbEntity
  8
aussen
100
AcDbLine
 10
139.3785785933442
 20
207.4586182745737
 30
0.0
 11
141.5093001328941
 21
204.5259316699732
 31
0.0
  0
LINE
  5
162A
330
1F
100
AcDbEntity
  8
aussen
100
AcDbLine
 10
143.803267820445
 20
206.1925967528459
 30
0.0
 11
141.6725462808867
 21
209.1252833574552
 31
0.0
  0
LINE
  5
162B
330
1F
100
AcDbEntity
  8
aussen
100
AcDbLine
 10
123.6263839807231
 20
191.5332325606866
 30
0.0
 11
121.4956624411688
 21
194.4659191652951
 31
0.0
  0
LINE
  5
162C
330
1F
100
AcDbEntity
  8
aussen
100
AcDbLine
 10
119.201694753623
 20
192.7992540824128
 30
0.0
 11
121.3324162931708
 21
189.8665674778136
 31
0.0
  0
LINE
  5
162D
330
1F
100
AcDbEntity
  8
aussen
100
AcDbLine
 10
103.4495001410025
 20
176.873868368526
 30
0.0
 11
101.3187786014486
 21
179.8065549731325
 31
0.0
  0
LINE
  5
162E
330
1F
100
AcDbEntity
  8
aussen
100
AcDbLine
 10
99.02481091389099
 20
178.1398898902657
 30
0.0
 11
101.1555324534497
 21
175.2072032856524
 31
0.0
  0
LINE
  5
162F
330
1F
100
AcDbEntity
  8
aussen
100
AcDbLine
 10
83.27261630127899
 20
162.214504176367
 30
0.0
 11
81.14189476172737
 21
165.1471907809684
 31
0.0
  0
LINE
  5
1630
330
1F
100
AcDbEntity
  8
aussen
100
AcDbLine
 10
78.8479270741685
 20
163.4805256981063
 30
0.0
 11
80.97864861372878
 21
160.5478390934935
 31
0.0
  0
LINE
  5
1631
330
1F
100
AcDbEntity
  8
aussen
100
AcDbLine
 10
141.5093001328941
 20
204.5259316699732
 30
0.0
 11
143.8032678204449
 21
206.1925967528462
 31
0.0
  0
LINE
  5
1632
330
1F
100
AcDbEntity
  8
aussen
100
AcDbLine
 10
121.3324162931708
 20
189.8665674778137
 30
0.0
 11
123.6263839807231
 21
191.5332325606866
 31
0.0
  0
LINE
  5
1633
330
1F
100
AcDbEntity
  8
aussen
100
AcDbLine
 10
101.1555324534497
 20
175.2072032856524
 30
0.0
 11
103.4495001410025
 21
176.873868368526
 31
0.0
  0
LINE
  5
1634
330
1F
100
AcDbEntity
  8
aussen
100
AcDbLine
 10
80.97864861372878
 20
160.5478390934935
 30
0.0
 11
83.27261630127902
 21
162.2145041763669
 31
0.0
  0
LINE
  5
1635
330
1F
100
AcDbEntity
  8
aussen
100
AcDbLine
 10
160.7024462768317
 20
222.9513150081816
 30
0.0
 11
179.7323462727687
 21
209.1252833574453
 31
0.0
  0
LINE
  5
1636
330
1F
100
AcDbEntity
  8
aussen
100
AcDbLine
 10
182.0263139603084
 20
207.4586182745569
 30
0.0
 11
199.9092301124694
 21
194.4659191652559
 31
0.0
  0
LINE
  5
1637
330
1F
100
AcDbEntity
  8
aussen
100
AcDbLine
 10
202.2031978000134
 20
192.7992540823703
 30
0.0
 11
220.0861139521608
 21
179.8065549730529
 31
0.0
  0
LINE
  5
1638
330
1F
100
AcDbEntity
  8
aussen
100
AcDbLine
 10
222.3800816397162
 20
178.1398898901839
 30
0.0
 11
240.2629977918622
 21
165.1471907808648
 31
0.0
  0
LINE
  5
1639
330
1F
100
AcDbEntity
  8
aussen
100
AcDbLine
 10
242.556965479416
 20
163.480525697999
 30
0.0
 11
261.5868654753452
 21
149.6544940472507
 31
0.0
  0
LINE
  5
163A
330
1F
100
AcDbEntity
  8
aussen
100
AcDbLine
 10
240.2629977918623
 20
165.147190780865
 30
0.0
 11
238.1322762523072
 21
162.2145041762683
 31
0.0
  0
LINE
  5
163B
330
1F
100
AcDbEntity
  8
aussen
100
AcDbLine
 10
240.4262439398551
 20
160.5478390933914
 30
0.0
 11
242.556965479416
 21
163.4805256979989
 31
0.0
  0
LINE
  5
163C
330
1F
100
AcDbEntity
  8
aussen
100
AcDbLine
 10
220.2493601001548
 20
175.2072032855805
 30
0.0
 11
222.3800816397162
 21
178.1398898901839
 31
0.0
  0
LINE
  5
163D
330
1F
100
AcDbEntity
  8
aussen
100
AcDbLine
 10
220.0861139521608
 20
179.8065549730528
 30
0.0
 11
217.9553924126062
 21
176.8738683684586
 31
0.0
  0
LINE
  5
163E
330
1F
100
AcDbEntity
  8
aussen
100
AcDbLine
 10
200.0724762604537
 20
189.8665674777679
 30
0.0
 11
202.2031978000133
 21
192.7992540823703
 31
0.0
  0
LINE
  5
163F
330
1F
100
AcDbEntity
  8
aussen
100
AcDbLine
 10
199.9092301124689
 20
194.4659191652553
 30
0.0
 11
197.7785085729044
 21
191.5332325606463
 31
0.0
  0
LINE
  5
1640
330
1F
100
AcDbEntity
  8
aussen
100
AcDbLine
 10
179.8955924207532
 20
204.5259316699587
 30
0.0
 11
182.0263139603087
 21
207.4586182745572
 31
0.0
  0
LINE
  5
1641
330
1F
100
AcDbEntity
  8
aussen
100
AcDbLine
 10
179.7323462727684
 20
209.1252833574449
 30
0.0
 11
177.6016247332048
 21
206.1925967528346
 31
0.0
  0
LINE
  5
1642
330
1F
100
AcDbEntity
  8
aussen
100
AcDbLine
 10
238.1322762523072
 20
162.2145041762683
 30
0.0
 11
240.4262439398553
 21
160.5478390933916
 31
0.0
  0
LINE
  5
1643
330
1F
100
AcDbEntity
  8
aussen
100
AcDbLine
 10
217.9553924126062
 20
176.8738683684586
 30
0.0
 11
220.2493601001548
 21
175.2072032855805
 31
0.0
  0
LINE
  5
1644
330
1F
100
AcDbEntity
  8
aussen
100
AcDbLine
 10
197.7785085729044
 20
191.5332325606463
 30
0.0
 11
200.0724762604537
 21
189.8665674777679
 31
0.0
  0
LINE
  5
1645
330
1F
100
AcDbEntity
  8
aussen
100
AcDbLine
 10
177.6016247332048
 20
206.1925967528346
 30
0.0
 11
179.8955924207532
 21
204.5259316699586
 31
0.0
  0
LINE
  5
1646
330
1F
100
AcDbEntity
  8
aussen
100
AcDbLine
 10
261.5868654753452
 20
149.6544940472507
 30
0.0
 11
254.3180904794096
 21
127.2835049068263
 31
0.0
  0
LINE
  5
1647
330
1F
100
AcDbEntity
  8
aussen
100
AcDbLine
 10
253.4418727918438
 20
124.5867841548772
 30
0.0
 11
246.6112066396808
 21
103.5641553904305
 31
0.0
  0
LINE
  5
1648
330
1F
100
AcDbEntity
  8
aussen
100
AcDbLine
 10
245.734988952119
 20
100.8674346384782
 30
0.0
 11
238.9043227999362
 21
79.84480587403925
 31
0.0
  0
LINE
  5
1649
330
1F
100
AcDbEntity
  8
aussen
100
AcDbLine
 10
238.0281051123936
 20
77.14808512208134
 30
0.0
 11
231.1974389602089
 21
56.12545635764315
 31
0.0
  0
LINE
  5
164A
330
1F
100
AcDbEntity
  8
aussen
100
AcDbLine
 10
230.3212212726689
 20
53.42873560568768
 30
0.0
 11
223.0524462767196
 21
31.05774646526703
 31
0.0
  0
LINE
  5
164B
330
1F
100
AcDbEntity
  8
aussen
100
AcDbLine
 10
231.1974389602091
 20
56.12545635764309
 30
0.0
 11
227.7498590886526
 21
57.24564296225134
 31
0.0
  0
LINE
  5
164C
330
1F
100
AcDbEntity
  8
aussen
100
AcDbLine
 10
226.8736414011003
 20
54.54892221029803
 30
0.0
 11
230.3212212726687
 21
53.42873560568771
 31
0.0
  0
LINE
  5
164D
330
1F
100
AcDbEntity
  8
aussen
100
AcDbLine
 10
234.5805252408289
 20
78.2682717266934
 30
0.0
 11
238.0281051123937
 21
77.14808512208131
 31
0.0
  0
LINE
  5
164E
330
1F
100
AcDbEntity
  8
aussen
100
AcDbLine
 10
238.9043227999362
 20
79.84480587403928
 30
0.0
 11
235.4567429283822
 21
80.96499247864767
 31
0.0
  0
LINE
  5
164F
330
1F
100
AcDbEntity
  8
aussen
100
AcDbLine
 10
242.2874090805557
 20
101.987621243089
 30
0.0
 11
245.7349889521189
 21
100.8674346384783
 31
0.0
  0
LINE
  5
1650
330
1F
100
AcDbEntity
  8
aussen
100
AcDbLine
 10
246.6112066396802
 20
103.5641553904307
 30
0.0
 11
243.163626768109
 21
104.6843419950441
 31
0.0
  0
LINE
  5
1651
330
1F
100
AcDbEntity
  8
aussen
100
AcDbLine
 10
249.9942929202858
 20
125.706970759485
 30
0.0
 11
253.4418727918442
 21
124.5867841548771
 31
0.0
  0
LINE
  5
1652
330
1F
100
AcDbEntity
  8
aussen
100
AcDbLine
 10
254.3180904794092
 20
127.2835049068264
 30
0.0
 11
250.8705106078371
 21
128.4036915114385
 31
0.0
  0
LINE
  5
1653
330
1F
100
AcDbEntity
  8
aussen
100
AcDbLine
 10
227.7498590886526
 20
57.24564296225134
 30
0.0
 11
226.8736414011005
 21
54.54892221029795
 31
0.0
  0
LINE
  5
1654
330
1F
100
AcDbEntity
  8
aussen
100
AcDbLine
 10
235.4567429283822
 20
80.96499247864767
 30
0.0
 11
234.5805252408289
 21
78.2682717266934
 31
0.0
  0
LINE
  5
1655
330
1F
100
AcDbEntity
  8
aussen
100
AcDbLine
 10
243.163626768109
 20
104.6843419950441
 30
0.0
 11
242.2874090805557
 21
101.987621243089
 31
0.0
  0
LINE
  5
1656
330
1F
100
AcDbEntity
  8
aussen
100
AcDbLine
 10
250.8705106078371
 20
128.4036915114385
 30
0.0
 11
249.9942929202857
 21
125.7069707594851
 31
0.0
  0
LINE
  5
1657
330
1F
100
AcDbEntity
  8
aussen
100
AcDbLine
 10
223.0524462767196
 20
31.05774646526703
 30
0.0
 11
199.530196276719
 21
31.05774646526627
 31
0.0
  0
LINE
  5
1658
330
1F
100
AcDbEntity
  8
aussen
100
AcDbLine
 10
196.6946962767197
 20
31.05774646528299
 30
0.0
 11
174.5901962767186
 21
31.05774646528468
 31
0.0
  0
LINE
  5
1659
330
1F
100
AcDbEntity
  8
aussen
100
AcDbLine
 10
171.7546962767176
 20
31.05774646529665
 30
0.0
 11
149.6501962767177
 21
31.05774646531949
 31
0.0
  0
LINE
  5
165A
330
1F
100
AcDbEntity
  8
aussen
100
AcDbLine
 10
146.8146962767172
 20
31.05774646531139
 30
0.0
 11
124.7101962767175
 21
31.0577464653364
 31
0.0
  0
LINE
  5
165B
330
1F
100
AcDbEntity
  8
aussen
100
AcDbLine
 10
121.8746962767201
 20
31.05774646532662
 30
0.0
 11
98.3524462767189
 21
31.05774646534008
 31
0.0
  0
LINE
  5
165C
330
1F
100
AcDbEntity
  8
aussen
100
AcDbLine
 10
124.7101962767175
 20
31.05774646533622
 30
0.0
 11
124.7101962767208
 21
34.68274646532318
 31
0.0
  0
LINE
  5
165D
330
1F
100
AcDbEntity
  8
aussen
100
AcDbLine
 10
121.8746962767216
 20
34.68274646532569
 30
0.0
 11
121.8746962767201
 21
31.05774646532673
 31
0.0
  0
LINE
  5
165E
330
1F
100
AcDbEntity
  8
aussen
100
AcDbLine
 10
146.8146962767215
 20
34.68274646530732
 30
0.0
 11
146.8146962767172
 21
31.05774646531135
 31
0.0
  0
LINE
  5
165F
330
1F
100
AcDbEntity
  8
aussen
100
AcDbLine
 10
149.6501962767177
 20
31.05774646531958
 30
0.0
 11
149.6501962767219
 21
34.68274646530413
 31
0.0
  0
LINE
  5
1660
330
1F
100
AcDbEntity
  8
aussen
100
AcDbLine
 10
171.7546962767211
 20
34.68274646529082
 30
0.0
 11
171.7546962767176
 21
31.05774646529668
 31
0.0
  0
LINE
  5
1661
330
1F
100
AcDbEntity
  8
aussen
100
AcDbLine
 10
174.5901962767186
 20
31.05774646528538
 30
0.0
 11
174.5901962767223
 21
34.68274646528782
 31
0.0
  0
LINE
  5
1662
330
1F
100
AcDbEntity
  8
aussen
100
AcDbLine
 10
196.6946962767221
 20
34.68274646527121
 30
0.0
 11
196.6946962767197
 21
31.05774646528256
 31
0.0
  0
LINE
  5
1663
330
1F
100
AcDbEntity
  8
aussen
100
AcDbLine
 10
199.530196276719
 20
31.05774646526672
 30
0.0
 11
199.5301962767211
 21
34.68274646526969
 31
0.0
  0
LINE
  5
1664
330
1F
100
AcDbEntity
  8
aussen
100
AcDbLine
 10
124.7101962767208
 20
34.68274646532311
 30
0.0
 11
121.8746962767216
 21
34.68274646532541
 31
0.0
  0
LINE
  5
1665
330
1F
100
AcDbEntity
  8
aussen
100
AcDbLine
 10
149.6501962767219
 20
34.68274646530412
 30
0.0
 11
146.8146962767215
 21
34.68274646530736
 31
0.0
  0
LINE
  5
1666
330
1F
100
AcDbEntity
  8
aussen
100
AcDbLine
 10
174.5901962767223
 20
34.68274646528784
 30
0.0
 11
171.7546962767211
 21
34.68274646529078
 31
0.0
  0
LINE
  5
1667
330
1F
100
AcDbEntity
  8
aussen
100
AcDbLine
 10
199.5301962767211
 20
34.68274646526968
 30
0.0
 11
196.6946962767221
 21
34.68274646527128
 31
0.0
  0
LINE
  5
1668
330
1F
100
AcDbEntity
  8
aussen
100
AcDbLine
 10
98.35244627671861
 20
31.05774646534019
 30
0.0
 11
91.08367128078163
 21
53.42873560576416
 31
0.0
  0
LINE
  5
1669
330
1F
100
AcDbEntity
  8
aussen
100
AcDbLine
 10
90.20745359324759
 20
56.12545635772355
 30
0.0
 11
83.37678744108786
 21
77.14808512217135
 31
0.0
  0
LINE
  5
166A
330
1F
100
AcDbEntity
  8
aussen
100
AcDbLine
 10
82.50056975354875
 20
79.84480587413097
 30
0.0
 11
75.66990360140952
 21
100.8674346385841
 31
0.0
  0
LINE
  5
166B
330
1F
100
AcDbEntity
  8
aussen
100
AcDbLine
 10
74.7936859138515
 20
103.564155390537
 30
0.0
 11
67.96301976171438
 21
124.5867841549907
 31
0.0
  0
LINE
  5
166C
330
1F
100
AcDbEntity
  8
aussen
100
AcDbLine
 10
67.08680207415571
 20
127.2835049069401
 30
0.0
 11
59.81802707823206
 21
149.6544940473691
 31
0.0
  0
LINE
  5
166D
330
1F
100
AcDbEntity
  8
aussen
100
AcDbLine
 10
67.96301976171421
 20
124.5867841549906
 30
0.0
 11
71.41059963327274
 21
125.7069707595927
 31
0.0
  0
LINE
  5
166E
330
1F
100
AcDbEntity
  8
aussen
100
AcDbLine
 10
70.53438194572524
 20
128.4036915115475
 30
0.0
 11
67.08680207415581
 21
127.2835049069402
 31
0.0
  0
LINE
  5
166F
330
1F
100
AcDbEntity
  8
aussen
100
AcDbLine
 10
78.2412657854189
 20
104.6843419951408
 30
0.0
 11
74.79368591385146
 21
103.564155390537
 31
0.0
  0
LINE
  5
1670
330
1F
100
AcDbEntity
  8
aussen
100
AcDbLine
 10
75.6699036014096
 20
100.8674346385842
 30
0.0
 11
79.11748347296614
 21
101.9876212431845
 31
0.0
  0
LINE
  5
1671
330
1F
100
AcDbEntity
  8
aussen
100
AcDbLine
 10
85.94814962511424
 20
80.96499247873498
 30
0.0
 11
82.50056975354879
 21
79.844805874131
 31
0.0
  0
LINE
  5
1672
330
1F
100
AcDbEntity
  8
aussen
100
AcDbLine
 10
83.37678744108851
 20
77.14808512217158
 30
0.0
 11
86.8243673126619
 21
78.26827172677804
 31
0.0
  0
LINE
  5
1673
330
1F
100
AcDbEntity
  8
aussen
100
AcDbLine
 10
93.65503346480705
 20
57.24564296232683
 30
0.0
 11
90.20745359324718
 21
56.12545635772341
 31
0.0
  0
LINE
  5
1674
330
1F
100
AcDbEntity
  8
aussen
100
AcDbLine
 10
91.08367128078206
 20
53.4287356057643
 30
0.0
 11
94.53125115235545
 21
54.54892221037247
 31
0.0
  0
LINE
  5
1675
330
1F
100
AcDbEntity
  8
aussen
100
AcDbLine
 10
71.41059963327268
 20
125.7069707595927
 30
0.0
 11
70.53438194572496
 21
128.4036915115474
 31
0.0
  0
LINE
  5
1676
330
1F
100
AcDbEntity
  8
aussen
100
AcDbLine
 10
79.11748347296614
 20
101.9876212431845
 30
0.0
 11
78.24126578541893
 21
104.6843419951408
 31
0.0
  0
LINE
  5
1677
330
1F
100
AcDbEntity
  8
aussen
100
AcDbLine
 10
86.82436731266192
 20
78.26827172677804
 30
0.0
 11
85.94814962511421
 21
80.96499247873496
 31
0.0
  0
LINE
  5
1678
330
1F
100
AcDbEntity
  8
aussen
100
AcDbLine
 10
94.53125115235544
 20
54.54892221037247
 30
0.0
 11
93.65503346480713
 21
57.24564296232685
 31
0.0
  0
LINE
  5
1679
330
1F
100
AcDbEntity
  8
aussen
100
AcDbLine
 10
250.8762023508758
 20
104.3545674262713
 30
0.0
 11
258.1449773468114
 21
126.7255565666957
 31
0.0
  0
LINE
  5
167A
330
1F
100
AcDbEntity
  8
aussen
100
AcDbLine
 10
259.0211950343772
 20
129.4222773186448
 30
0.0
 11
265.8518611865402
 21
150.4449060830916
 31
0.0
  0
LINE
  5
167B
330
1F
100
AcDbEntity
  8
aussen
100
AcDbLine
 10
266.7280788741022
 20
153.1416268350437
 30
0.0
 11
273.5587450262849
 21
174.1642555994827
 31
0.0
  0
LINE
  5
167C
330
1F
100
AcDbEntity
  8
aussen
100
AcDbLine
 10
274.4349627138275
 20
176.8609763514406
 30
0.0
 11
281.2656288660123
 21
197.8836051158788
 31
0.0
  0
LINE
  5
167D
330
1F
100
AcDbEntity
  8
aussen
100
AcDbLine
 10
282.1418465535523
 20
200.5803258678343
 30
0.0
 11
289.4106215495017
 21
222.9513150082549
 31
0.0
  0
LINE
  5
167E
330
1F
100
AcDbEntity
  8
aussen
100
AcDbLine
 10
281.2656288660121
 20
197.8836051158789
 30
0.0
 11
284.7132087375686
 21
196.7634185112706
 31
0.0
  0
LINE
  5
167F
330
1F
100
AcDbEntity
  8
aussen
100
AcDbLine
 10
285.5894264251209
 20
199.4601392632239
 30
0.0
 11
282.1418465535525
 21
200.5803258678343
 31
0.0
  0
LINE
  5
1680
330
1F
100
AcDbEntity
  8
aussen
100
AcDbLine
 10
277.8825425853922
 20
175.7407897468286
 30
0.0
 11
274.4349627138275
 21
176.8609763514407
 31
0.0
  0
LINE
  5
1681
330
1F
100
AcDbEntity
  8
aussen
100
AcDbLine
 10
273.558745026285
 20
174.1642555994827
 30
0.0
 11
277.0063248978389
 21
173.0440689948743
 31
0.0
  0
LINE
  5
1682
330
1F
100
AcDbEntity
  8
aussen
100
AcDbLine
 10
270.1756587456654
 20
152.021440230433
 30
0.0
 11
266.7280788741022
 21
153.1416268350437
 31
0.0
  0
LINE
  5
1683
330
1F
100
AcDbEntity
  8
aussen
100
AcDbLine
 10
265.8518611865409
 20
150.4449060830913
 30
0.0
 11
269.2994410581121
 21
149.3247194784779
 31
0.0
  0
LINE
  5
1684
330
1F
100
AcDbEntity
  8
aussen
100
AcDbLine
 10
262.4687749059352
 20
128.302090714037
 30
0.0
 11
259.0211950343768
 21
129.4222773186449
 31
0.0
  0
LINE
  5
1685
330
1F
100
AcDbEntity
  8
aussen
100
AcDbLine
 10
258.1449773468118
 20
126.7255565666956
 30
0.0
 11
261.5925572183839
 21
125.6053699620836
 31
0.0
  0
LINE
  5
1686
330
1F
100
AcDbEntity
  8
aussen
100
AcDbLine
 10
284.7132087375686
 20
196.7634185112707
 30
0.0
 11
285.5894264251206
 21
199.460139263224
 31
0.0
  0
LINE
  5
1687
330
1F
100
AcDbEntity
  8
aussen
100
AcDbLine
 10
277.0063248978389
 20
173.0440689948743
 30
0.0
 11
277.8825425853923
 21
175.7407897468286
 31
0.0
  0
LINE
  5
1688
330
1F
100
AcDbEntity
  8
aussen
100
AcDbLine
 10
269.2994410581121
 20
149.3247194784779
 30
0.0
 11
270.1756587456654
 21
152.021440230433
 31
0.0
  0
LINE
  5
1689
330
1F
100
AcDbEntity
  8
aussen
100
AcDbLine
 10
261.5925572183839
 20
125.6053699620836
 30
0.0
 11
262.4687749059353
 21
128.302090714037
 31
0.0
  0
LINE
  5
168A
330
1F
100
AcDbEntity
  8
aussen
100
AcDbLine
 10
351.7606215493893
 20
31.0577464653402
 30
0.0
 11
332.7307215534523
 21
44.88377811607656
 31
0.0
  0
LINE
  5
168B
330
1F
100
AcDbEntity
  8
aussen
100
AcDbLine
 10
330.4367538659126
 20
46.55044319896497
 30
0.0
 11
312.5538377137516
 21
59.54314230826597
 31
0.0
  0
LINE
  5
168C
330
1F
100
AcDbEntity
  8
aussen
100
AcDbLine
 10
310.2598700262077
 20
61.2098073911516
 30
0.0
 11
292.3769538740602
 21
74.20250650046898
 31
0.0
  0
LINE
  5
168D
330
1F
100
AcDbEntity
  8
aussen
100
AcDbLine
 10
290.0829861865049
 20
75.86917158333803
 30
0.0
 11
272.2000700343588
 21
88.86187069265708
 31
0.0
  0
LINE
  5
168E
330
1F
100
AcDbEntity
  8
aussen
100
AcDbLine
 10
269.906102346805
 20
90.52853577552297
 30
0.0
 11
250.8762023508759
 21
104.3545674262712
 31
0.0
  0
LINE
  5
168F
330
1F
100
AcDbEntity
  8
aussen
100
AcDbLine
 10
272.2000700343587
 20
88.86187069265694
 30
0.0
 11
274.3307915739139
 21
91.79455729725366
 31
0.0
  0
LINE
  5
1690
330
1F
100
AcDbEntity
  8
aussen
100
AcDbLine
 10
272.0368238863659
 20
93.4612223801305
 30
0.0
 11
269.9061023468051
 21
90.52853577552305
 31
0.0
  0
LINE
  5
1691
330
1F
100
AcDbEntity
  8
aussen
100
AcDbLine
 10
292.2137077260662
 20
78.80185818794139
 30
0.0
 11
290.0829861865049
 21
75.86917158333799
 31
0.0
  0
LINE
  5
1692
330
1F
100
AcDbEntity
  8
aussen
100
AcDbLine
 10
292.3769538740603
 20
74.20250650046906
 30
0.0
 11
294.5076754136148
 21
77.13519310506328
 31
0.0
  0
LINE
  5
1693
330
1F
100
AcDbEntity
  8
aussen
100
AcDbLine
 10
312.3905915657674
 20
64.14249399575397
 30
0.0
 11
310.2598700262077
 21
61.20980739115163
 31
0.0
  0
LINE
  5
1694
330
1F
100
AcDbEntity
  8
aussen
100
AcDbLine
 10
312.553837713752
 20
59.54314230826654
 30
0.0
 11
314.6845592533167
 21
62.47582891287557
 31
0.0
  0
LINE
  5
1695
330
1F
100
AcDbEntity
  8
aussen
100
AcDbLine
 10
332.5674754054678
 20
49.48312980356322
 30
0.0
 11
330.4367538659124
 21
46.55044319896462
 31
0.0
  0
LINE
  5
1696
330
1F
100
AcDbEntity
  8
aussen
100
AcDbLine
 10
332.7307215534526
 20
44.88377811607693
 30
0.0
 11
334.8614430930162
 21
47.81646472068729
 31
0.0
  0
LINE
  5
1697
330
1F
100
AcDbEntity
  8
aussen
100
AcDbLine
 10
274.3307915739139
 20
91.7945572972536
 30
0.0
 11
272.0368238863658
 21
93.46122238013027
 31
0.0
  0
LINE
  5
1698
330
1F
100
AcDbEntity
  8
aussen
100
AcDbLine
 10
294.5076754136148
 20
77.13519310506327
 30
0.0
 11
292.2137077260662
 21
78.80185818794142
 31
0.0
  0
LINE
  5
1699
330
1F
100
AcDbEntity
  8
aussen
100
AcDbLine
 10
314.6845592533167
 20
62.47582891287558
 30
0.0
 11
312.3905915657673
 21
64.14249399575394
 31
0.0
  0
LINE
  5
169A
330
1F
100
AcDbEntity
  8
aussen
100
AcDbLine
 10
334.8614430930162
 20
47.81646472068729
 30
0.0
 11
332.5674754054679
 21
49.48312980356327
 31
0.0
  0
LINE
  5
169B
330
1F
100
AcDbEntity
  8
aussen
100
AcDbLine
 10
289.4106215495018
 20
222.951315008255
 30
0.0
 11
312.9328715495024
 21
222.9513150082557
 31
0.0
  0
LINE
  5
169C
330
1F
100
AcDbEntity
  8
aussen
100
AcDbLine
 10
315.7683715495017
 20
222.951315008239
 30
0.0
 11
337.8728715495027
 21
222.9513150082373
 31
0.0
  0
LINE
  5
169D
330
1F
100
AcDbEntity
  8
aussen
100
AcDbLine
 10
340.7083715495038
 20
222.9513150082254
 30
0.0
 11
362.8128715495037
 21
222.9513150082025
 31
0.0
  0
LINE
  5
169E
330
1F
100
AcDbEntity
  8
aussen
100
AcDbLine
 10
365.6483715495042
 20
222.9513150082106
 30
0.0
 11
387.7528715495039
 21
222.9513150081856
 31
0.0
  0
LINE
  5
169F
330
1F
100
AcDbEntity
  8
aussen
100
AcDbLine
 10
390.5883715495013
 20
222.9513150081954
 30
0.0
 11
414.1106215495025
 21
222.9513150081819
 31
0.0
  0
LINE
  5
16A0
330
1F
100
AcDbEntity
  8
aussen
100
AcDbLine
 10
387.7528715495039
 20
222.9513150081858
 30
0.0
 11
387.7528715495006
 21
219.3263150081988
 31
0.0
  0
LINE
  5
16A1
330
1F
100
AcDbEntity
  8
aussen
100
AcDbLine
 10
390.5883715494998
 20
219.3263150081963
 30
0.0
 11
390.5883715495013
 21
222.9513150081953
 31
0.0
  0
LINE
  5
16A2
330
1F
100
AcDbEntity
  8
aussen
100
AcDbLine
 10
365.6483715494999
 20
219.3263150082147
 30
0.0
 11
365.6483715495042
 21
222.9513150082106
 31
0.0
  0
LINE
  5
16A3
330
1F
100
AcDbEntity
  8
aussen
100
AcDbLine
 10
362.8128715495037
 20
222.9513150082024
 30
0.0
 11
362.8128715494995
 21
219.3263150082178
 31
0.0
  0
LINE
  5
16A4
330
1F
100
AcDbEntity
  8
aussen
100
AcDbLine
 10
340.7083715495003
 20
219.3263150082312
 30
0.0
 11
340.7083715495038
 21
222.9513150082253
 31
0.0
  0
LINE
  5
16A5
330
1F
100
AcDbEntity
  8
aussen
100
AcDbLine
 10
337.8728715495027
 20
222.9513150082366
 30
0.0
 11
337.8728715494991
 21
219.3263150082342
 31
0.0
  0
LINE
  5
16A6
330
1F
100
AcDbEntity
  8
aussen
100
AcDbLine
 10
315.7683715494993
 20
219.3263150082508
 30
0.0
 11
315.7683715495017
 21
222.9513150082394
 31
0.0
  0
LINE
  5
16A7
330
1F
100
AcDbEntity
  8
aussen
100
AcDbLine
 10
312.9328715495024
 20
222.9513150082553
 30
0.0
 11
312.9328715495003
 21
219.3263150082523
 31
0.0
  0
LINE
  5
16A8
330
1F
100
AcDbEntity
  8
aussen
100
AcDbLine
 10
387.7528715495006
 20
219.3263150081989
 30
0.0
 11
390.5883715494998
 21
219.3263150081966
 31
0.0
  0
LINE
  5
16A9
330
1F
100
AcDbEntity
  8
aussen
100
AcDbLine
 10
362.8128715494995
 20
219.3263150082179
 30
0.0
 11
365.6483715494999
 21
219.3263150082146
 31
0.0
  0
LINE
  5
16AA
330
1F
100
AcDbEntity
  8
aussen
100
AcDbLine
 10
337.8728715494991
 20
219.3263150082341
 30
0.0
 11
340.7083715495003
 21
219.3263150082312
 31
0.0
  0
LINE
  5
16AB
330
1F
100
AcDbEntity
  8
aussen
100
AcDbLine
 10
312.9328715495003
 20
219.3263150082523
 30
0.0
 11
315.7683715494993
 21
219.3263150082507
 31
0.0
  0
LINE
  5
16AC
330
1F
100
AcDbEntity
  8
aussen
100
AcDbLine
 10
414.1106215495024
 20
222.9513150081818
 30
0.0
 11
421.3793965454394
 21
200.5803258677578
 31
0.0
  0
LINE
  5
16AD
330
1F
100
AcDbEntity
  8
aussen
100
AcDbLine
 10
422.2556142329734
 20
197.8836051157984
 30
0.0
 11
429.0862803851331
 21
176.8609763513506
 31
0.0
  0
LINE
  5
16AE
330
1F
100
AcDbEntity
  8
aussen
100
AcDbLine
 10
429.9624980726722
 20
174.1642555993911
 30
0.0
 11
436.7931642248115
 21
153.1416268349379
 31
0.0
  0
LINE
  5
16AF
330
1F
100
AcDbEntity
  8
aussen
100
AcDbLine
 10
437.6693819123695
 20
150.444906082985
 30
0.0
 11
444.5000480645067
 21
129.4222773185314
 31
0.0
  0
LINE
  5
16B0
330
1F
100
AcDbEntity
  8
aussen
100
AcDbLine
 10
445.3762657520654
 20
126.7255565665819
 30
0.0
 11
452.645040747989
 21
104.3545674261529
 31
0.0
  0
LINE
  5
16B1
330
1F
100
AcDbEntity
  8
aussen
100
AcDbLine
 10
444.5000480645068
 20
129.4222773185314
 30
0.0
 11
441.0524681929483
 21
128.3020907139293
 31
0.0
  0
LINE
  5
16B2
330
1F
100
AcDbEntity
  8
aussen
100
AcDbLine
 10
441.9286858804958
 20
125.6053699619745
 30
0.0
 11
445.3762657520653
 21
126.7255565665819
 31
0.0
  0
LINE
  5
16B3
330
1F
100
AcDbEntity
  8
aussen
100
AcDbLine
 10
434.2218020408021
 20
149.3247194783812
 30
0.0
 11
437.6693819123695
 21
150.444906082985
 31
0.0
  0
LINE
  5
16B4
330
1F
100
AcDbEntity
  8
aussen
100
AcDbLine
 10
436.7931642248114
 20
153.1416268349379
 30
0.0
 11
433.3455843532549
 21
152.0214402303374
 31
0.0
  0
LINE
  5
16B5
330
1F
100
AcDbEntity
  8
aussen
100
AcDbLine
 10
426.5149182011068
 20
173.044068994787
 30
0.0
 11
429.9624980726722
 21
174.164255599391
 31
0.0
  0
LINE
  5
16B6
330
1F
100
AcDbEntity
  8
aussen
100
AcDbLine
 10
429.0862803851325
 20
176.8609763513504
 30
0.0
 11
425.6387005135591
 21
175.740789746744
 31
0.0
  0
LINE
  5
16B7
330
1F
100
AcDbEntity
  8
aussen
100
AcDbLine
 10
418.8080343614139
 20
196.7634185111952
 30
0.0
 11
422.2556142329738
 21
197.8836051157986
 31
0.0
  0
LINE
  5
16B8
330
1F
100
AcDbEntity
  8
aussen
100
AcDbLine
 10
421.3793965454389
 20
200.5803258677577
 30
0.0
 11
417.9318166738656
 21
199.4601392631496
 31
0.0
  0
LINE
  5
16B9
330
1F
100
AcDbEntity
  8
aussen
100
AcDbLine
 10
441.0524681929484
 20
128.3020907139294
 30
0.0
 11
441.9286858804961
 21
125.6053699619746
 31
0.0
  0
LINE
  5
16BA
330
1F
100
AcDbEntity
  8
aussen
100
AcDbLine
 10
433.3455843532549
 20
152.0214402303375
 30
0.0
 11
434.2218020408021
 21
149.3247194783812
 31
0.0
  0
LINE
  5
16BB
330
1F
100
AcDbEntity
  8
aussen
100
AcDbLine
 10
425.6387005135591
 20
175.7407897467439
 30
0.0
 11
426.5149182011068
 21
173.0440689947871
 31
0.0
  0
LINE
  5
16BC
330
1F
100
AcDbEntity
  8
aussen
100
AcDbLine
 10
417.9318166738656
 20
199.4601392631496
 30
0.0
 11
418.8080343614139
 21
196.7634185111952
 31
0.0
  0
LINE
  5
16BD
330
1F
100
AcDbEntity
  8
aussen
100
AcDbLine
 10
452.6450407479891
 20
104.354567426153
 30
0.0
 11
433.6151407520529
 21
90.5285357754154
 31
0.0
  0
LINE
  5
16BE
330
1F
100
AcDbEntity
  8
aussen
100
AcDbLine
 10
431.3211730644936
 20
88.86187069255405
 30
0.0
 11
413.4382569123306
 21
75.8691715832558
 31
0.0
  0
LINE
  5
16BF
330
1F
100
AcDbEntity
  8
aussen
100
AcDbLine
 10
411.1442892247726
 20
74.20250650038956
 30
0.0
 11
393.2613730725982
 21
61.20980739110914
 31
0.0
  0
LINE
  5
16C0
330
1F
100
AcDbEntity
  8
aussen
100
AcDbLine
 10
390.9674053850524
 20
59.54314230822698
 30
0.0
 11
373.0844892328769
 21
46.55044319894843
 31
0.0
  0
LINE
  5
16C1
330
1F
100
AcDbEntity
  8
aussen
100
AcDbLine
 10
370.7905215453346
 20
44.88377811606674
 30
0.0
 11
351.7606215493896
 21
31.0577464653403
 31
0.0
  0
LINE
  5
16C2
330
1F
100
AcDbEntity
  8
aussen
100
AcDbLine
 10
373.084489232877
 20
46.55044319894829
 30
0.0
 11
370.9537676933271
 21
49.48312980354885
 31
0.0
  0
LINE
  5
16C3
330
1F
100
AcDbEntity
  8
aussen
100
AcDbLine
 10
368.6598000057762
 20
47.81646472067607
 30
0.0
 11
370.7905215453345
 21
44.88377811606682
 31
0.0
  0
LINE
  5
16C4
330
1F
100
AcDbEntity
  8
aussen
100
AcDbLine
 10
388.8366838454981
 20
62.47582891283542
 30
0.0
 11
390.9674053850524
 21
59.54314230822695
 31
0.0
  0
LINE
  5
16C5
330
1F
100
AcDbEntity
  8
aussen
100
AcDbLine
 10
393.2613730725982
 20
61.20980739110922
 30
0.0
 11
391.1306515330505
 21
64.14249399570838
 31
0.0
  0
LINE
  5
16C6
330
1F
100
AcDbEntity
  8
aussen
100
AcDbLine
 10
409.0135676852186
 20
77.13519310499612
 30
0.0
 11
411.1442892247725
 21
74.20250650038959
 31
0.0
  0
LINE
  5
16C7
330
1F
100
AcDbEntity
  8
aussen
100
AcDbLine
 10
413.4382569123302
 20
75.86917158325636
 30
0.0
 11
411.3075353727715
 21
78.80185818786967
 31
0.0
  0
LINE
  5
16C8
330
1F
100
AcDbEntity
  8
aussen
100
AcDbLine
 10
429.1904515249422
 20
91.79455729715511
 30
0.0
 11
431.3211730644938
 21
88.86187069255371
 31
0.0
  0
LINE
  5
16C9
330
1F
100
AcDbEntity
  8
aussen
100
AcDbLine
 10
433.6151407520526
 20
90.52853577541578
 30
0.0
 11
431.4844192124924
 21
93.46122238002857
 31
0.0
  0
LINE
  5
16CA
330
1F
100
AcDbEntity
  8
aussen
100
AcDbLine
 10
370.9537676933272
 20
49.48312980354879
 30
0.0
 11
368.6598000057764
 21
47.81646472067584
 31
0.0
  0
LINE
  5
16CB
330
1F
100
AcDbEntity
  8
aussen
100
AcDbLine
 10
391.1306515330505
 20
64.14249399570836
 30
0.0
 11
388.8366838454981
 21
62.47582891283545
 31
0.0
  0
LINE
  5
16CC
330
1F
100
AcDbEntity
  8
aussen
100
AcDbLine
 10
411.3075353727715
 20
78.80185818786967
 30
0.0
 11
409.0135676852187
 21
77.13519310499609
 31
0.0
  0
LINE
  5
16CD
330
1F
100
AcDbEntity
  8
aussen
100
AcDbLine
 10
431.4844192124924
 20
93.46122238002857
 30
0.0
 11
429.1904515249421
 21
91.79455729715517
 31
0.0
  0
ENDSEC
  0
SECTION
  2
OBJECTS
  0
DICTIONARY
  5
C
330
0
100
AcDbDictionary
281
     1
  3
ACAD_BACKGROUND
350
402
  3
ACAD_CIP_PREVIOUS_PRODUCT_INFO
350
216
  3
ACAD_COLOR
350
6B
  3
ACAD_DETAILVIEWSTYLE
350
21B
  3
ACAD_GROUP
350
D
  3
ACAD_IMAGE_VARS
350
100B
  3
ACAD_LAYOUT
350
1A
  3
ACAD_MATERIAL
350
6A
  3
ACAD_MLEADERSTYLE
350
12D
  3
ACAD_MLINESTYLE
350
17
  3
ACAD_PLOTSETTINGS
350
19
  3
ACAD_PLOTSTYLENAME
350
E
  3
ACAD_SCALELIST
350
10C
  3
ACAD_SECTIONVIEWSTYLE
350
219
  3
ACAD_TABLESTYLE
350
7E
  3
ACAD_VISUALSTYLE
350
EF
  3
ACDB_RECOMPOSE_DATA
350
16D4
  3
AcDbVariableDictionary
350
5E
  3
APPDATA
350
1009
  0
SUN
  5
100A
330
EA
100
AcDbSun
 90
        1
290
     0
 63
     7
421
 16777215
 40
1.0
291
     1
 91
  2455826
 92
 54000000
292
     0
 70
     2
 71
   256
280
     1
  0
DICTIONARY
  5
1FF
330
2
100
AcDbDictionary
280
     1
281
     1
  3
ACAD_LAYERSTATES
360
200
  3
ACLYDICTIONARY
360
15F9
  0
DICTIONARY
  5
1CE
330
1F
100
AcDbDictionary
280
     1
281
     1
  3
ACAD_SORTENTS
360
277
  0
DICTIONARY
  5
12F7
330
12F6
100
AcDbDictionary
280
     1
281
     1
  0
DICTIONARY
  5
1306
330
1305
100
AcDbDictionary
280
     1
281
     1
  0
DICTIONARY
  5
402
102
{ACAD_REACTORS
330
C
102
}
330
C
100
AcDbDictionary
281
     1
  0
XRECORD
  5
216
102
{ACAD_REACTORS
330
C
102
}
330
C
100
AcDbXrecord
280
     1
300
ACD
300
2016
300
ACD_F_S
  0
DICTIONARY
  5
6B
102
{ACAD_REACTORS
330
C
102
}
330
C
100
AcDbDictionary
281
     1
  0
DICTIONARY
  5
21B
102
{ACAD_REACTORS
330
C
102
}
330
C
100
AcDbDictionary
281
     1
  3
Metric50
350
21C
  0
DICTIONARY
  5
D
102
{ACAD_REACTORS
330
C
102
}
330
C
100
AcDbDictionary
281
     1
  0
RASTERVARIABLES
  5
100B
102
{ACAD_REACTORS
330
C
102
}
330
C
100
AcDbRasterVariables
 90
        0
 70
     1
 71
     1
 72
     1
  0
DICTIONARY
  5
1A
102
{ACAD_REACTORS
330
C
102
}
330
C
100
AcDbDictionary
281
     1
  3
Layout1
350
D3
  3
Layout2
350
D7
  3
Model
350
22
  0
DICTIONARY
  5
6A
102
{ACAD_REACTORS
330
C
102
}
330
C
100
AcDbDictionary
281
     1
  3
ByBlock
350
ED
  3
ByLayer
350
EC
  3
Global
350
EE
  0
DICTIONARY
  5
12D
102
{ACAD_REACTORS
330
C
102
}
330
C
100
AcDbDictionary
281
     1
  3
Beschriftung
350
13B
  3
Standard
350
12E
  0
DICTIONARY
  5
17
102
{ACAD_REACTORS
330
C
102
}
330
C
100
AcDbDictionary
281
     1
  3
Standard
350
18
  0
DICTIONARY
  5
19
102
{ACAD_REACTORS
330
C
102
}
330
C
100
AcDbDictionary
281
     1
  0
ACDBDICTIONARYWDFLT
  5
E
102
{ACAD_REACTORS
330
C
102
}
330
C
100
AcDbDictionary
281
     1
  3
Normal
350
F
100
AcDbDictionaryWithDefault
340
F
  0
DICTIONARY
  5
10C
102
{ACAD_REACTORS
330
C
102
}
330
C
100
AcDbDictionary
281
     1
  3
A0
350
10D
  3
A1
350
1BE
  3
A2
350
1BF
  3
A3
350
1C0
  3
A4
350
1C1
  3
A5
350
1C2
  3
A6
350
1C3
  3
A7
350
1C4
  3
A8
350
1C5
  3
A9
350
1C6
  3
B0
350
1C7
  3
B1
350
1C8
  3
B2
350
1C9
  3
B3
350
1CA
  3
B4
350
1CB
  3
B5
350
1CC
  3
B6
350
1CD
  0
DICTIONARY
  5
219
102
{ACAD_REACTORS
330
C
102
}
330
C
100
AcDbDictionary
281
     1
  3
Metric50
350
21A
  0
DICTIONARY
  5
7E
102
{ACAD_REACTORS
330
C
102
}
330
C
100
AcDbDictionary
281
     1
  3
Standard
350
7F
  0
DICTIONARY
  5
EF
102
{ACAD_REACTORS
330
C
102
}
330
C
100
AcDbDictionary
281
     1
  3
2dWireframe
350
F5
  3
Basic
350
F4
  3
Brighten
350
FB
  3
ColorChange
350
FF
  3
Conceptual
350
F8
  3
Dim
350
FA
  3
EdgeColorOff
350
1E6
  3
Facepattern
350
FE
  3
Flat
350
F0
  3
FlatWithEdges
350
F1
  3
Gouraud
350
F2
  3
GouraudWithEdges
350
F3
  3
Hidden
350
F7
  3
JitterOff
350
1E4
  3
Linepattern
350
FD
  3
OverhangOff
350
1E5
  3
Realistic
350
F9
  3
Shaded
350
1F3
  3
Shaded with edges
350
1F2
  3
Shades of Gray
350
1EF
  3
Sketchy
350
1F0
  3
Thicken
350
FC
  3
Wireframe
350
F6
  3
X-Ray
350
1F1
  0
XRECORD
  5
16D4
102
{ACAD_REACTORS
330
C
102
}
330
C
100
AcDbXrecord
280
     1
 90
        1
330
7F
  0
DICTIONARY
  5
5E
102
{ACAD_REACTORS
330
C
102
}
330
C
100
AcDbDictionary
281
     1
  3
CANNOSCALE
350
11B8
  3
CMLEADERSTYLE
350
145
  3
CTABLESTYLE
350
84
  3
CVIEWDETAILSTYLE
350
227
  3
CVIEWSECTIONSTYLE
350
228
  3
DIMASSOC
350
5F
  3
HIDETEXT
350
63
  3
INDEXCTL
350
F7C
  3
LAYEREVAL
350
1AE
  3
LAYERNOTIFY
350
1AF
  3
LIGHTINGUNITS
350
F7A
  3
LOFTANG1
350
FC8
  3
LOFTANG2
350
FC9
  3
MSLTSCALE
350
F79
  3
SORTENTS
350
F7B
  3
XCLIPFRAME
350
FCA
  0
DICTIONARY
  5
1009
102
{ACAD_REACTORS
330
C
102
}
330
C
100
AcDbDictionary
281
     1
  0
DICTIONARY
  5
200
102
{ACAD_REACTORS
330
1FF
102
}
330
1FF
100
AcDbDictionary
281
     1
  0
DICTIONARY
  5
15F9
102
{ACAD_REACTORS
330
1FF
102
}
330
1FF
100
AcDbDictionary
281
     1
1001
ACAD
1000
<All
  0
SORTENTSTABLE
  5
277
102
{ACAD_REACTORS
330
1CE
102
}
330
1CE
100
AcDbSortentsTable
330
1F
  0
ACDBDETAILVIEWSTYLE
  5
21C
102
{ACAD_REACTORS
330
21B
102
}
102
{ACAD_XDICTIONARY
360
1007
102
}
330
21B
100
AcDbModelDocViewStyle
 70
     0
  3
Metric50
290
     0
100
AcDbDetailViewStyle
 70
     0
 71
     0
 90
        3
 71
     1
340
11
 62
   256
 40
5.0
340
0
 62
   256
 40
5.0
300

 40
0.0
280
     1
 71
     2
340
16
 90
       25
 62
   256
 71
     3
340
11
 62
   256
 40
5.0
 90
        0
 40
15.0
 90
        1
300
%<\AcVar ViewDetailId>% (%<\AcVar ViewScale \f "%sn">%)
 71
     4
340
16
 90
       25
 62
   256
340
16
 90
       25
 62
   256
280
     0
  0
LAYOUT
  5
D3
102
{ACAD_REACTORS
330
1A
102
}
330
1A
100
AcDbPlotSettings
  1

  2
C:\Documents and Settings\basas\Application Data\Autodesk\AutoCAD 2005\R16.1\enu\plotters\Default Windows System Printer.pc3
  4

  6

 40
0.0
 41
0.0
 42
0.0
 43
0.0
 44
0.0
 45
0.0
 46
0.0
 47
0.0
 48
0.0
 49
0.0
140
0.0
141
0.0
142
1.0
143
1.0
 70
   688
 72
     0
 73
     0
 74
     5
  7

 75
    16
 76
     0
 77
     2
 78
   300
147
1.0
148
0.0
149
0.0
100
AcDbLayout
  1
Layout1
 70
     1
 71
     1
 10
0.0
 20
0.0
 11
12.0
 21
9.0
 12
0.0
 22
0.0
 32
0.0
 14
0.0
 24
0.0
 34
0.0
 15
0.0
 25
0.0
 35
0.0
146
0.0
 13
0.0
 23
0.0
 33
0.0
 16
1.0
 26
0.0
 36
0.0
 17
0.0
 27
1.0
 37
0.0
 76
     0
330
D2
  0
LAYOUT
  5
D7
102
{ACAD_REACTORS
330
1A
102
}
330
1A
100
AcDbPlotSettings
  1

  2
C:\Documents and Settings\basas\Application Data\Autodesk\AutoCAD 2005\R16.1\enu\plotters\Default Windows System Printer.pc3
  4

  6

 40
0.0
 41
0.0
 42
0.0
 43
0.0
 44
0.0
 45
0.0
 46
0.0
 47
0.0
 48
0.0
 49
0.0
140
0.0
141
0.0
142
1.0
143
1.0
 70
   688
 72
     0
 73
     0
 74
     5
  7

 75
    16
 76
     0
 77
     2
 78
   300
147
1.0
148
0.0
149
0.0
100
AcDbLayout
  1
Layout2
 70
     1
 71
     2
 10
0.0
 20
0.0
 11
12.0
 21
9.0
 12
0.0
 22
0.0
 32
0.0
 14
0.0
 24
0.0
 34
0.0
 15
0.0
 25
0.0
 35
0.0
146
0.0
 13
0.0
 23
0.0
 33
0.0
 16
1.0
 26
0.0
 36
0.0
 17
0.0
 27
1.0
 37
0.0
 76
     0
330
D6
  0
LAYOUT
  5
22
102
{ACAD_REACTORS
330
1A
102
}
330
1A
100
AcDbPlotSettings
  1

  2
none_device
  4
ISO_A4_(210.00_x_297.00_MM)
  6

 40
7.5
 41
20.0
 42
7.5
 43
20.0
 44
210.0
 45
297.0
 46
11.54999923706054
 47
-13.65000009536743
 48
0.0
 49
0.0
140
0.0
141
0.0
142
1.0
143
8.704084754739808
 70
 11952
 72
     1
 73
     0
 74
     0
  7

 75
     0
 76
     0
 77
     2
 78
   300
147
0.1148885871608098
148
0.0
149
0.0
100
AcDbLayout
  1
Model
 70
     1
 71
     0
 10
0.0
 20
0.0
 11
12.0
 21
9.0
 12
0.0
 22
0.0
 32
0.0
 14
34.37019097773742
 24
30.27087699890181
 34
0.0
 15
452.6450407480593
 25
254.3609254910974
 35
0.0
146
0.0
 13
0.0
 23
0.0
 33
0.0
 16
1.0
 26
0.0
 36
0.0
 17
0.0
 27
1.0
 37
0.0
 76
     0
330
1F
331
EA
1001
ACAD_PSEXT
1000
None
1000
None
1000
Not applicable
1000
The layout will not be plotted unless a new plotter configuration name is selected.
1070
     0
  0
MATERIAL
  5
ED
102
{ACAD_REACTORS
330
6A
102
}
102
{ACAD_XDICTIONARY
360
1F9
102
}
330
6A
100
AcDbMaterial
  1
ByBlock
 72
     1
 94
      127
  0
MATERIAL
  5
EC
102
{ACAD_REACTORS
330
6A
102
}
102
{ACAD_XDICTIONARY
360
1F7
102
}
330
6A
100
AcDbMaterial
  1
ByLayer
 72
     1
 94
      127
  0
MATERIAL
  5
EE
102
{ACAD_REACTORS
330
6A
102
}
102
{ACAD_XDICTIONARY
360
173
102
}
330
6A
100
AcDbMaterial
  1
Global
 72
     1
 43
0.0007999999797903
 43
0.0
 43
0.0
 43
0.0
 43
0.0
 43
0.0007999999797903
 43
0.0
 43
0.0
 43
0.0
 43
0.0
 43
1.0
 43
0.0
 43
0.0
 43
0.0
 43
0.0
 43
1.0
 49
0.0007999999797903
 49
0.0
 49
0.0
 49
0.0
 49
0.0
 49
0.0007999999797903
 49
0.0
 49
0.0
 49
0.0
 49
0.0
 49
1.0
 49
0.0
 49
0.0
 49
0.0
 49
0.0
 49
1.0
142
0.0007999999797903
142
0.0
142
0.0
142
0.0
142
0.0
142
0.0007999999797903
142
0.0
142
0.0
142
0.0
142
0.0
142
1.0
142
0.0
142
0.0
142
0.0
142
0.0
142
1.0
144
0.0007999999797903
144
0.0
144
0.0
144
0.0
144
0.0
144
0.0007999999797903
144
0.0
144
0.0
144
0.0
144
0.0
144
1.0
144
0.0
144
0.0
144
0.0
144
0.0
144
1.0
 94
      127
1001
ACAD
1070
    -1
1070
     3
1070
     0
1000

1071
        0
1070
     0
  0
MLEADERSTYLE
  5
13B
102
{ACAD_REACTORS
330
12D
102
}
330
12D
100
AcDbMLeaderStyle
179
     2
170
     2
171
     1
172
     0
 90
        2
 40
0.0
 41
0.0
173
     1
 91
-1056964608
340
14
 92
       -2
290
     1
 42
2.0
291
     1
 43
8.0
  3
Standard
341
0
 44
4.0
300

342
11
174
     1
178
     1
175
     1
176
     0
 93
-1056964608
 45
4.0
292
     0
297
     0
 46
4.0
343
0
 94
-1056964608
 47
1.0
 49
1.0
140
1.0
293
     1
141
0.0
294
     1
177
     0
142
1.0
295
     0
296
     1
143
3.75
271
     0
272
     9
273
     9
298
     0
  0
MLEADERSTYLE
  5
12E
102
{ACAD_REACTORS
330
12D
102
}
330
12D
100
AcDbMLeaderStyle
179
     2
170
     2
171
     1
172
     0
 90
        2
 40
0.0
 41
0.0
173
     1
 91
-1056964608
340
14
 92
       -2
290
     1
 42
2.0
291
     1
 43
8.0
  3
Standard
341
0
 44
4.0
300

342
11
174
     1
178
     1
175
     1
176
     0
 93
-1056964608
 45
4.0
292
     0
297
     0
 46
4.0
343
0
 94
-1056964608
 47
1.0
 49
1.0
140
1.0
293
     1
141
0.0
294
     1
177
     0
142
1.0
295
     0
296
     0
143
3.75
271
     0
272
     9
273
     9
298
     0
  0
MLINESTYLE
  5
18
102
{ACAD_REACTORS
330
17
102
}
330
17
100
AcDbMlineStyle
  2
STANDARD
 70
     0
  3

 62
   256
 51
90.0
 52
90.0
 71
     2
 49
0.5
 62
   256
  6
BYLAYER
 49
-0.5
 62
   256
  6
BYLAYER
  0
ACDBPLACEHOLDER
  5
F
102
{ACAD_REACTORS
330
E
102
}
330
E
  0
SCALE
  5
10D
102
{ACAD_REACTORS
330
10C
102
}
330
10C
100
AcDbScale
 70
     0
300
1:1
140
1.0
141
1.0
290
     1
  0
SCALE
  5
1BE
102
{ACAD_REACTORS
330
10C
102
}
330
10C
100
AcDbScale
 70
     0
300
1:2
140
1.0
141
2.0
290
     0
  0
SCALE
  5
1BF
102
{ACAD_REACTORS
330
10C
102
}
330
10C
100
AcDbScale
 70
     0
300
1:4
140
1.0
141
4.0
290
     0
  0
SCALE
  5
1C0
102
{ACAD_REACTORS
330
10C
102
}
330
10C
100
AcDbScale
 70
     0
300
1:5
140
1.0
141
5.0
290
     0
  0
SCALE
  5
1C1
102
{ACAD_REACTORS
330
10C
102
}
330
10C
100
AcDbScale
 70
     0
300
1:8
140
1.0
141
8.0
290
     0
  0
SCALE
  5
1C2
102
{ACAD_REACTORS
330
10C
102
}
330
10C
100
AcDbScale
 70
     0
300
1:10
140
1.0
141
10.0
290
     0
  0
SCALE
  5
1C3
102
{ACAD_REACTORS
330
10C
102
}
330
10C
100
AcDbScale
 70
     0
300
1:16
140
1.0
141
16.0
290
     0
  0
SCALE
  5
1C4
102
{ACAD_REACTORS
330
10C
102
}
330
10C
100
AcDbScale
 70
     0
300
1:20
140
1.0
141
20.0
290
     0
  0
SCALE
  5
1C5
102
{ACAD_REACTORS
330
10C
102
}
330
10C
100
AcDbScale
 70
     0
300
1:30
140
1.0
141
30.0
290
     0
  0
SCALE
  5
1C6
102
{ACAD_REACTORS
330
10C
102
}
330
10C
100
AcDbScale
 70
     0
300
1:40
140
1.0
141
40.0
290
     0
  0
SCALE
  5
1C7
102
{ACAD_REACTORS
330
10C
102
}
330
10C
100
AcDbScale
 70
     0
300
1:50
140
1.0
141
50.0
290
     0
  0
SCALE
  5
1C8
102
{ACAD_REACTORS
330
10C
102
}
330
10C
100
AcDbScale
 70
     0
300
1:100
140
1.0
141
100.0
290
     0
  0
SCALE
  5
1C9
102
{ACAD_REACTORS
330
10C
102
}
330
10C
100
AcDbScale
 70
     0
300
2:1
140
2.0
141
1.0
290
     0
  0
SCALE
  5
1CA
102
{ACAD_REACTORS
330
10C
102
}
330
10C
100
AcDbScale
 70
     0
300
4:1
140
4.0
141
1.0
290
     0
  0
SCALE
  5
1CB
102
{ACAD_REACTORS
330
10C
102
}
330
10C
100
AcDbScale
 70
     0
300
8:1
140
8.0
141
1.0
290
     0
  0
SCALE
  5
1CC
102
{ACAD_REACTORS
330
10C
102
}
330
10C
100
AcDbScale
 70
     0
300
10:1
140
10.0
141
1.0
290
     0
  0
SCALE
  5
1CD
102
{ACAD_REACTORS
330
10C
102
}
330
10C
100
AcDbScale
 70
     0
300
100:1
140
100.0
141
1.0
290
     0
  0
ACDBSECTIONVIEWSTYLE
  5
21A
102
{ACAD_REACTORS
330
219
102
}
102
{ACAD_XDICTIONARY
360
1005
102
}
330
219
100
AcDbModelDocViewStyle
 70
     0
  3
Metric50
290
     0
100
AcDbSectionViewStyle
 70
     0
 71
     0
 90
      102
 71
     1
340
11
 62
   256
 40
5.0
340
0
340
0
 62
   256
 40
5.0
300
I, O, Q, S, X, Z
 40
10.0
 90
        0
 40
2.5
 90
        0
 71
     2
340
16
 90
       25
 62
   256
340
16
 90
       50
 62
   256
 40
5.0
 40
2.5
 40
5.0
 71
     3
340
11
 62
   256
 40
5.0
 90
        0
 40
15.0
 90
        1
300
%<\AcVar ViewSectionStartId>%-%<\AcVar ViewSectionEndId>% (%<\AcVar ViewScale \f "%sn">%)
 71
     4
 62
   256
 62
   257
300
ANSI31
 40
1.0
 90
        0
290
     0
290
     0
 90
        6
 40
0.0
 40
1.570796326794896
 40
0.2617993877991494
 40
1.308996938995747
 40
-0.2617993877991494
 40
1.832595714594044
  0
TABLESTYLE
  5
7F
102
{ACAD_REACTORS
330
7E
102
}
102
{ACAD_XDICTIONARY
360
16D2
102
}
330
7E
100
AcDbTableStyle
  3
Standard
 70
     0
 71
     0
 40
1.5
 41
1.5
280
     0
281
     0
  7
Standard
140
4.5
170
     2
 62
     0
 63
   257
283
     0
 90
      512
 91
        0
  1

274
    -2
284
     1
 64
     0
275
    -2
285
     1
 65
     0
276
    -2
286
     1
 66
     0
277
    -2
287
     1
 67
     0
278
    -2
288
     1
 68
     0
279
    -2
289
     1
 69
     0
  7
Standard
140
6.0
170
     5
 62
     0
 63
   257
283
     0
 90
      512
 91
        0
  1

274
    -2
284
     1
 64
     0
275
    -2
285
     1
 65
     0
276
    -2
286
     1
 66
     0
277
    -2
287
     1
 67
     0
278
    -2
288
     1
 68
     0
279
    -2
289
     1
 69
     0
  7
Standard
140
4.5
170
     5
 62
     0
 63
   257
283
     0
 90
      512
 91
        0
  1

274
    -2
284
     1
 64
     0
275
    -2
285
     1
 65
     0
276
    -2
286
     1
 66
     0
277
    -2
287
     1
 67
     0
278
    -2
288
     1
 68
     0
279
    -2
289
     1
 69
     0
  0
VISUALSTYLE
  5
F5
102
{ACAD_REACTORS
330
EF
102
}
330
EF
100
AcDbVisualStyle
  2

 70
     4
177
     3
291
     0
 70
    58
 90
        0
176
     1
 90
        2
176
     1
 90
        1
176
     1
 90
        0
176
     1
 40
-0.6
176
     1
 40
-30.0
176
     1
 62
     7
176
     1
 90
        1
176
     1
 90
        4
176
     1
 62
     7
176
     1
 62
   257
176
     1
 90
        1
176
     1
 90
        1
176
     1
 40
1.0
176
     1
 90
        0
176
     1
 62
   257
176
     1
 40
1.0
176
     1
 90
        1
176
     1
 90
        6
176
     1
 90
        2
176
     1
 62
     7
176
     1
 90
        5
176
     1
 90
        0
176
     1
 90
        0
176
     1
290
     0
176
     1
 90
        1
176
     1
 40
0.0
176
     1
 90
        0
176
     1
290
     1
176
     1
290
     1
176
     1
290
     0
176
     1
290
     0
176
     1
290
     0
176
     1
290
     0
176
     1
290
     0
176
     1
290
     0
176
     1
290
     0
176
     1
 90
       50
176
     1
 40
0.0
176
     1
 40
1.0
176
     1
 90
        0
176
     1
 62
    18
420
        0
176
     1
 90
       50
176
     1
 90
        3
176
     1
 62
     5
420
      255
176
     1
290
     0
176
     1
 90
       50
176
     1
 90
       50
176
     1
 90
       50
176
     1
290
     0
176
     1
 90
       50
176
     1
 62
   256
176
     0
 40
1.0
176
     0
 90
        2
176
     1
  1
strokes_ogs.tif
176
     1
290
     0
176
     1
 40
1.0
176
     1
 40
1.0
176
     1
  0
VISUALSTYLE
  5
F4
102
{ACAD_REACTORS
330
EF
102
}
330
EF
100
AcDbVisualStyle
  2

 70
     7
177
     3
291
     1
 70
    58
 90
        1
176
     1
 90
        0
176
     1
 90
        1
176
     1
 90
        0
176
     1
 40
-0.6
176
     1
 40
-30.0
176
     1
 62
     7
176
     1
 90
        0
176
     1
 90
        4
176
     1
 62
     7
176
     1
 62
   257
176
     1
 90
        1
176
     1
 90
        1
176
     1
 40
1.0
176
     1
 90
        8
176
     1
 62
     7
176
     1
 40
1.0
176
     1
 90
        1
176
     1
 90
        6
176
     1
 90
        2
176
     1
 62
     7
176
     1
 90
        5
176
     1
 90
        0
176
     1
 90
        0
176
     1
290
     0
176
     1
 90
        1
176
     1
 40
0.0
176
     1
 90
        0
176
     1
290
     0
176
     1
290
     1
176
     1
290
     1
176
     1
290
     0
176
     1
290
     0
176
     1
290
     0
176
     1
290
     0
176
     1
290
     0
176
     1
290
     0
176
     1
 90
       50
176
     1
 40
0.0
176
     1
 40
1.0
176
     1
 90
        0
176
     1
 62
    18
420
        0
176
     1
 90
       50
176
     1
 90
        3
176
     1
 62
     5
420
      255
176
     1
290
     0
176
     1
 90
       50
176
     1
 90
       50
176
     1
 90
       50
176
     1
290
     0
176
     1
 90
       50
176
     1
 62
   256
176
     0
 40
1.0
176
     0
 90
        2
176
     1
  1
strokes_ogs.tif
176
     1
290
     0
176
     1
 40
1.0
176
     1
 40
1.0
176
     1
  0
VISUALSTYLE
  5
FB
102
{ACAD_REACTORS
330
EF
102
}
330
EF
100
AcDbVisualStyle
  2

 70
    12
177
     3
291
     1
 70
    58
 90
        2
176
     1
 90
        2
176
     1
 90
        1
176
     1
 90
        0
176
     1
 40
-0.6
176
     1
 40
-30.0
176
     1
 62
     7
176
     1
 90
        1
176
     1
 90
        4
176
     1
 62
     7
176
     1
 62
   257
176
     1
 90
        1
176
     1
 90
        1
176
     1
 40
1.0
176
     1
 90
        8
176
     1
 62
     7
176
     1
 40
1.0
176
     1
 90
        1
176
     1
 90
        6
176
     1
 90
        2
176
     1
 62
     7
176
     1
 90
        5
176
     1
 90
        0
176
     1
 90
        0
176
     1
290
     0
176
     1
 90
        1
176
     1
 40
50.0
176
     1
 90
        0
176
     1
290
     0
176
     1
290
     1
176
     1
290
     1
176
     1
290
     0
176
     1
290
     0
176
     1
290
     0
176
     1
290
     0
176
     1
290
     0
176
     1
290
     0
176
     1
 90
       50
176
     1
 40
0.0
176
     1
 40
1.0
176
     1
 90
        0
176
     1
 62
    18
420
        0
176
     1
 90
       50
176
     1
 90
        3
176
     1
 62
     5
420
      255
176
     1
290
     0
176
     1
 90
       50
176
     1
 90
       50
176
     1
 90
       50
176
     1
290
     0
176
     1
 90
       50
176
     1
 62
   256
176
     0
 40
1.0
176
     0
 90
        2
176
     1
  1
strokes_ogs.tif
176
     1
290
     0
176
     1
 40
1.0
176
     1
 40
1.0
176
     1
  0
VISUALSTYLE
  5
FF
102
{ACAD_REACTORS
330
EF
102
}
330
EF
100
AcDbVisualStyle
  2

 70
    16
177
     3
291
     1
 70
    58
 90
        2
176
     1
 90
        2
176
     1
 90
        3
176
     1
 90
        0
176
     1
 40
-0.6
176
     1
 40
-30.0
176
     1
 62
     8
176
     1
 90
        1
176
     1
 90
        4
176
     1
 62
     7
176
     1
 62
   257
176
     1
 90
        1
176
     1
 90
        1
176
     1
 40
1.0
176
     1
 90
        8
176
     1
 62
     8
176
     1
 40
1.0
176
     1
 90
        1
176
     1
 90
        6
176
     1
 90
        2
176
     1
 62
     7
176
     1
 90
        5
176
     1
 90
        0
176
     1
 90
        0
176
     1
290
     0
176
     1
 90
        1
176
     1
 40
0.0
176
     1
 90
        0
176
     1
290
     0
176
     1
290
     1
176
     1
290
     1
176
     1
290
     0
176
     1
290
     0
176
     1
290
     0
176
     1
290
     0
176
     1
290
     0
176
     1
290
     0
176
     1
 90
       50
176
     1
 40
0.0
176
     1
 40
1.0
176
     1
 90
        0
176
     1
 62
    18
420
        0
176
     1
 90
       50
176
     1
 90
        3
176
     1
 62
     5
420
      255
176
     1
290
     0
176
     1
 90
       50
176
     1
 90
       50
176
     1
 90
       50
176
     1
290
     0
176
     1
 90
       50
176
     1
 62
   256
176
     0
 40
1.0
176
     0
 90
        2
176
     1
  1
strokes_ogs.tif
176
     1
290
     0
176
     1
 40
1.0
176
     1
 40
1.0
176
     1
  0
VISUALSTYLE
  5
F8
102
{ACAD_REACTORS
330
EF
102
}
330
EF
100
AcDbVisualStyle
  2

 70
     9
177
     3
291
     0
 70
    58
 90
        3
176
     1
 90
        2
176
     1
 90
        1
176
     1
 90
        0
176
     1
 40
-0.6
176
     1
 40
-30.0
176
     1
 62
     7
176
     1
 90
        2
176
     1
 90
        2
176
     1
 62
     7
176
     1
 62
   257
176
     1
 90
        1
176
     1
 90
        1
176
     1
 40
40.0
176
     1
 90
        8
176
     1
 62
     7
176
     1
 40
1.0
176
     1
 90
        1
176
     1
 90
        6
176
     1
 90
        2
176
     1
 62
     7
176
     1
 90
        3
176
     1
 90
        0
176
     1
 90
        0
176
     1
290
     0
176
     1
 90
        1
176
     1
 40
0.0
176
     1
 90
        0
176
     1
290
     0
176
     1
290
     1
176
     1
290
     1
176
     1
290
     0
176
     1
290
     0
176
     1
290
     0
176
     1
290
     0
176
     1
290
     0
176
     1
290
     0
176
     1
 90
       50
176
     1
 40
0.0
176
     1
 40
1.0
176
     1
 90
        0
176
     1
 62
    18
420
        0
176
     1
 90
       50
176
     1
 90
        3
176
     1
 62
     5
420
      255
176
     1
290
     0
176
     1
 90
       50
176
     1
 90
       50
176
     1
 90
       50
176
     1
290
     0
176
     1
 90
       50
176
     1
 62
   256
176
     0
 40
1.0
176
     0
 90
        2
176
     1
  1
strokes_ogs.tif
176
     1
290
     0
176
     1
 40
1.0
176
     1
 40
1.0
176
     1
  0
VISUALSTYLE
  5
FA
102
{ACAD_REACTORS
330
EF
102
}
330
EF
100
AcDbVisualStyle
  2

 70
    11
177
     3
291
     1
 70
    58
 90
        2
176
     1
 90
        2
176
     1
 90
        1
176
     1
 90
        0
176
     1
 40
-0.6
176
     1
 40
-30.0
176
     1
 62
     7
176
     1
 90
        1
176
     1
 90
        4
176
     1
 62
     7
176
     1
 62
   257
176
     1
 90
        1
176
     1
 90
        1
176
     1
 40
1.0
176
     1
 90
        8
176
     1
 62
     7
176
     1
 40
1.0
176
     1
 90
        1
176
     1
 90
        6
176
     1
 90
        2
176
     1
 62
     7
176
     1
 90
        5
176
     1
 90
        0
176
     1
 90
        0
176
     1
290
     0
176
     1
 90
        1
176
     1
 40
-50.0
176
     1
 90
        0
176
     1
290
     0
176
     1
290
     1
176
     1
290
     1
176
     1
290
     0
176
     1
290
     0
176
     1
290
     0
176
     1
290
     0
176
     1
290
     0
176
     1
290
     0
176
     1
 90
       50
176
     1
 40
0.0
176
     1
 40
1.0
176
     1
 90
        0
176
     1
 62
    18
420
        0
176
     1
 90
       50
176
     1
 90
        3
176
     1
 62
     5
420
      255
176
     1
290
     0
176
     1
 90
       50
176
     1
 90
       50
176
     1
 90
       50
176
     1
290
     0
176
     1
 90
       50
176
     1
 62
   256
176
     0
 40
1.0
176
     0
 90
        2
176
     1
  1
strokes_ogs.tif
176
     1
290
     0
176
     1
 40
1.0
176
     1
 40
1.0
176
     1
  0
VISUALSTYLE
  5
1E6
102
{ACAD_REACTORS
330
EF
102
}
330
EF
100
AcDbVisualStyle
  2

 70
    22
177
     3
291
     1
 70
    58
 90
        2
176
     0
 90
        2
176
     0
 90
        0
176
     0
 90
        0
176
     0
 40
-0.6
176
     0
 40
-30.0
176
     0
 62
     7
176
     0
 90
        1
176
     0
 90
        4
176
     0
 62
     7
176
     0
 62
   257
176
     0
 90
        1
176
     0
 90
        1
176
     0
 40
1.0
176
     0
 90
        8
176
     2
 62
     7
176
     0
 40
1.0
176
     0
 90
        1
176
     0
 90
        6
176
     0
 90
        2
176
     0
 62
     7
176
     0
 90
        5
176
     0
 90
        0
176
     0
 90
        0
176
     0
290
     0
176
     0
 90
        1
176
     0
 40
0.0
176
     0
 90
        0
176
     0
290
     0
176
     1
290
     1
176
     1
290
     1
176
     1
290
     0
176
     1
290
     0
176
     1
290
     0
176
     1
290
     0
176
     1
290
     0
176
     1
290
     0
176
     1
 90
       50
176
     1
 40
0.0
176
     1
 40
1.0
176
     1
 90
        0
176
     1
 62
    18
420
        0
176
     1
 90
       50
176
     1
 90
        3
176
     1
 62
     5
420
      255
176
     1
290
     0
176
     1
 90
       50
176
     1
 90
       50
176
     1
 90
       50
176
     1
290
     0
176
     1
 90
       50
176
     1
 62
   256
176
     0
 40
1.0
176
     0
 90
        2
176
     1
  1
strokes_ogs.tif
176
     1
290
     0
176
     1
 40
1.0
176
     1
 40
1.0
176
     1
  0
VISUALSTYLE
  5
FE
102
{ACAD_REACTORS
330
EF
102
}
330
EF
100
AcDbVisualStyle
  2

 70
    15
177
     3
291
     1
 70
    58
 90
        2
176
     1
 90
        2
176
     1
 90
        1
176
     1
 90
        0
176
     1
 40
-0.6
176
     1
 40
-30.0
176
     1
 62
     7
176
     1
 90
        1
176
     1
 90
        4
176
     1
 62
     7
176
     1
 62
   257
176
     1
 90
        1
176
     1
 90
        1
176
     1
 40
1.0
176
     1
 90
        8
176
     1
 62
     7
176
     1
 40
1.0
176
     1
 90
        1
176
     1
 90
        6
176
     1
 90
        2
176
     1
 62
     7
176
     1
 90
        5
176
     1
 90
        0
176
     1
 90
        0
176
     1
290
     0
176
     1
 90
        1
176
     1
 40
0.0
176
     1
 90
        0
176
     1
290
     0
176
     1
290
     1
176
     1
290
     1
176
     1
290
     0
176
     1
290
     0
176
     1
290
     0
176
     1
290
     0
176
     1
290
     0
176
     1
290
     0
176
     1
 90
       50
176
     1
 40
0.0
176
     1
 40
1.0
176
     1
 90
        0
176
     1
 62
    18
420
        0
176
     1
 90
       50
176
     1
 90
        3
176
     1
 62
     5
420
      255
176
     1
290
     0
176
     1
 90
       50
176
     1
 90
       50
176
     1
 90
       50
176
     1
290
     0
176
     1
 90
       50
176
     1
 62
   256
176
     0
 40
1.0
176
     0
 90
        2
176
     1
  1
strokes_ogs.tif
176
     1
290
     0
176
     1
 40
1.0
176
     1
 40
1.0
176
     1
  0
VISUALSTYLE
  5
F0
102
{ACAD_REACTORS
330
EF
102
}
330
EF
100
AcDbVisualStyle
  2

 70
     0
177
     3
291
     1
 70
    58
 90
        2
176
     1
 90
        1
176
     1
 90
        1
176
     1
 90
        2
176
     1
 40
-0.6
176
     1
 40
30.0
176
     1
 62
     7
176
     1
 90
        0
176
     1
 90
        0
176
     1
 62
     7
176
     1
 62
   257
176
     1
 90
        1
176
     1
 90
        1
176
     1
 40
1.0
176
     1
 90
        8
176
     1
 62
     7
176
     1
 40
1.0
176
     1
 90
        1
176
     1
 90
        6
176
     1
 90
        2
176
     1
 62
     7
176
     1
 90
        5
176
     1
 90
        0
176
     1
 90
        0
176
     1
290
     0
176
     1
 90
       13
176
     1
 40
0.0
176
     1
 90
        0
176
     1
290
     0
176
     1
290
     1
176
     1
290
     1
176
     1
290
     0
176
     1
290
     0
176
     1
290
     0
176
     1
290
     0
176
     1
290
     0
176
     1
290
     0
176
     1
 90
       50
176
     1
 40
0.0
176
     1
 40
1.0
176
     1
 90
        0
176
     1
 62
    18
420
        0
176
     1
 90
       50
176
     1
 90
        3
176
     1
 62
     5
420
      255
176
     1
290
     0
176
     1
 90
       50
176
     1
 90
       50
176
     1
 90
       50
176
     1
290
     0
176
     1
 90
       50
176
     1
 62
   256
176
     0
 40
1.0
176
     0
 90
        2
176
     1
  1
strokes_ogs.tif
176
     1
290
     0
176
     1
 40
1.0
176
     1
 40
1.0
176
     1
  0
VISUALSTYLE
  5
F1
102
{ACAD_REACTORS
330
EF
102
}
330
EF
100
AcDbVisualStyle
  2

 70
     1
177
     3
291
     1
 70
    58
 90
        2
176
     1
 90
        1
176
     1
 90
        1
176
     1
 90
        2
176
     1
 40
-0.6
176
     1
 40
30.0
176
     1
 62
     7
176
     1
 90
        1
176
     1
 90
        0
176
     1
 62
     7
176
     1
 62
   257
176
     1
 90
        1
176
     1
 90
        1
176
     1
 40
1.0
176
     1
 90
        0
176
     1
 62
   257
176
     1
 40
1.0
176
     1
 90
        1
176
     1
 90
        6
176
     1
 90
        2
176
     1
 62
     7
176
     1
 90
        5
176
     1
 90
        0
176
     1
 90
        0
176
     1
290
     0
176
     1
 90
       13
176
     1
 40
0.0
176
     1
 90
        0
176
     1
290
     0
176
     1
290
     1
176
     1
290
     1
176
     1
290
     0
176
     1
290
     0
176
     1
290
     0
176
     1
290
     0
176
     1
290
     0
176
     1
290
     0
176
     1
 90
       50
176
     1
 40
0.0
176
     1
 40
1.0
176
     1
 90
        0
176
     1
 62
    18
420
        0
176
     1
 90
       50
176
     1
 90
        3
176
     1
 62
     5
420
      255
176
     1
290
     0
176
     1
 90
       50
176
     1
 90
       50
176
     1
 90
       50
176
     1
290
     0
176
     1
 90
       50
176
     1
 62
   256
176
     0
 40
1.0
176
     0
 90
        2
176
     1
  1
strokes_ogs.tif
176
     1
290
     0
176
     1
 40
1.0
176
     1
 40
1.0
176
     1
  0
VISUALSTYLE
  5
F2
102
{ACAD_REACTORS
330
EF
102
}
330
EF
100
AcDbVisualStyle
  2

 70
     2
177
     3
291
     1
 70
    58
 90
        2
176
     1
 90
        2
176
     1
 90
        1
176
     1
 90
        2
176
     1
 40
-0.6
176
     1
 40
30.0
176
     1
 62
     7
176
     1
 90
        0
176
     1
 90
        0
176
     1
 62
     7
176
     1
 62
   257
176
     1
 90
        1
176
     1
 90
        1
176
     1
 40
1.0
176
     1
 90
        0
176
     1
 62
     7
176
     1
 40
1.0
176
     1
 90
        1
176
     1
 90
        6
176
     1
 90
        2
176
     1
 62
     7
176
     1
 90
        5
176
     1
 90
        0
176
     1
 90
        0
176
     1
290
     0
176
     1
 90
       13
176
     1
 40
0.0
176
     1
 90
        0
176
     1
290
     0
176
     1
290
     1
176
     1
290
     1
176
     1
290
     0
176
     1
290
     0
176
     1
290
     0
176
     1
290
     0
176
     1
290
     0
176
     1
290
     0
176
     1
 90
       50
176
     1
 40
0.0
176
     1
 40
1.0
176
     1
 90
        0
176
     1
 62
    18
420
        0
176
     1
 90
       50
176
     1
 90
        3
176
     1
 62
     5
420
      255
176
     1
290
     0
176
     1
 90
       50
176
     1
 90
       50
176
     1
 90
       50
176
     1
290
     0
176
     1
 90
       50
176
     1
 62
   256
176
     0
 40
1.0
176
     0
 90
        2
176
     1
  1
strokes_ogs.tif
176
     1
290
     0
176
     1
 40
1.0
176
     1
 40
1.0
176
     1
  0
VISUALSTYLE
  5
F3
102
{ACAD_REACTORS
330
EF
102
}
330
EF
100
AcDbVisualStyle
  2

 70
     3
177
     3
291
     1
 70
    58
 90
        2
176
     1
 90
        2
176
     1
 90
        1
176
     1
 90
        2
176
     1
 40
-0.6
176
     1
 40
30.0
176
     1
 62
     7
176
     1
 90
        1
176
     1
 90
        0
176
     1
 62
     7
176
     1
 62
   257
176
     1
 90
        1
176
     1
 90
        1
176
     1
 40
1.0
176
     1
 90
        0
176
     1
 62
   257
176
     1
 40
1.0
176
     1
 90
        1
176
     1
 90
        6
176
     1
 90
        2
176
     1
 62
     7
176
     1
 90
        5
176
     1
 90
        0
176
     1
 90
        0
176
     1
290
     0
176
     1
 90
       13
176
     1
 40
0.0
176
     1
 90
        0
176
     1
290
     0
176
     1
290
     1
176
     1
290
     1
176
     1
290
     0
176
     1
290
     0
176
     1
290
     0
176
     1
290
     0
176
     1
290
     0
176
     1
290
     0
176
     1
 90
       50
176
     1
 40
0.0
176
     1
 40
1.0
176
     1
 90
        0
176
     1
 62
    18
420
        0
176
     1
 90
       50
176
     1
 90
        3
176
     1
 62
     5
420
      255
176
     1
290
     0
176
     1
 90
       50
176
     1
 90
       50
176
     1
 90
       50
176
     1
290
     0
176
     1
 90
       50
176
     1
 62
   256
176
     0
 40
1.0
176
     0
 90
        2
176
     1
  1
strokes_ogs.tif
176
     1
290
     0
176
     1
 40
1.0
176
     1
 40
1.0
176
     1
  0
VISUALSTYLE
  5
F7
102
{ACAD_REACTORS
330
EF
102
}
330
EF
100
AcDbVisualStyle
  2

 70
     6
177
     3
291
     0
 70
    58
 90
        1
176
     1
 90
        2
176
     1
 90
        2
176
     1
 90
        0
176
     1
 40
-0.6
176
     1
 40
-30.0
176
     1
 62
     7
176
     1
 90
        2
176
     1
 90
        2
176
     1
 62
     7
176
     1
 62
   257
176
     1
 90
        2
176
     1
 90
        1
176
     1
 40
40.0
176
     1
 90
        0
176
     1
 62
   257
176
     1
 40
1.0
176
     1
 90
        1
176
     1
 90
        6
176
     1
 90
        2
176
     1
 62
     7
176
     1
 90
        3
176
     1
 90
        0
176
     1
 90
        0
176
     1
290
     0
176
     1
 90
        1
176
     1
 40
0.0
176
     1
 90
        0
176
     1
290
     0
176
     1
290
     1
176
     1
290
     1
176
     1
290
     0
176
     1
290
     0
176
     1
290
     0
176
     1
290
     0
176
     1
290
     0
176
     1
290
     0
176
     1
 90
       50
176
     1
 40
0.0
176
     1
 40
1.0
176
     1
 90
        0
176
     1
 62
    18
420
        0
176
     1
 90
       50
176
     1
 90
        3
176
     1
 62
     5
420
      255
176
     1
290
     0
176
     1
 90
       50
176
     1
 90
       50
176
     1
 90
       50
176
     1
290
     0
176
     1
 90
       50
176
     1
 62
   256
176
     0
 40
1.0
176
     0
 90
        2
176
     1
  1
strokes_ogs.tif
176
     1
290
     0
176
     1
 40
1.0
176
     1
 40
1.0
176
     1
  0
VISUALSTYLE
  5
1E4
102
{ACAD_REACTORS
330
EF
102
}
330
EF
100
AcDbVisualStyle
  2

 70
    20
177
     3
291
     1
 70
    58
 90
        2
176
     0
 90
        2
176
     0
 90
        0
176
     0
 90
        0
176
     0
 40
-0.6
176
     0
 40
-30.0
176
     0
 62
     7
176
     0
 90
        1
176
     0
 90
        4
176
     0
 62
     7
176
     0
 62
   257
176
     0
 90
        1
176
     0
 90
        1
176
     0
 40
1.0
176
     0
 90
       10
176
     2
 62
     7
176
     0
 40
1.0
176
     0
 90
        1
176
     0
 90
        6
176
     0
 90
        2
176
     0
 62
     7
176
     0
 90
        5
176
     0
 90
        0
176
     0
 90
        0
176
     0
290
     0
176
     0
 90
        1
176
     0
 40
0.0
176
     0
 90
        0
176
     0
290
     0
176
     1
290
     1
176
     1
290
     1
176
     1
290
     0
176
     1
290
     0
176
     1
290
     0
176
     1
290
     0
176
     1
290
     0
176
     1
290
     0
176
     1
 90
       50
176
     1
 40
0.0
176
     1
 40
1.0
176
     1
 90
        0
176
     1
 62
    18
420
        0
176
     1
 90
       50
176
     1
 90
        3
176
     1
 62
     5
420
      255
176
     1
290
     0
176
     1
 90
       50
176
     1
 90
       50
176
     1
 90
       50
176
     1
290
     0
176
     1
 90
       50
176
     1
 62
   256
176
     0
 40
1.0
176
     0
 90
        2
176
     1
  1
strokes_ogs.tif
176
     1
290
     0
176
     1
 40
1.0
176
     1
 40
1.0
176
     1
  0
VISUALSTYLE
  5
FD
102
{ACAD_REACTORS
330
EF
102
}
330
EF
100
AcDbVisualStyle
  2

 70
    14
177
     3
291
     1
 70
    58
 90
        2
176
     1
 90
        2
176
     1
 90
        1
176
     1
 90
        0
176
     1
 40
-0.6
176
     1
 40
-30.0
176
     1
 62
     7
176
     1
 90
        1
176
     1
 90
        4
176
     1
 62
     7
176
     1
 62
   257
176
     1
 90
        7
176
     1
 90
        7
176
     1
 40
1.0
176
     1
 90
        8
176
     1
 62
     7
176
     1
 40
1.0
176
     1
 90
        1
176
     1
 90
        6
176
     1
 90
        2
176
     1
 62
     7
176
     1
 90
        5
176
     1
 90
        0
176
     1
 90
        0
176
     1
290
     0
176
     1
 90
        1
176
     1
 40
0.0
176
     1
 90
        0
176
     1
290
     0
176
     1
290
     1
176
     1
290
     1
176
     1
290
     0
176
     1
290
     0
176
     1
290
     0
176
     1
290
     0
176
     1
290
     0
176
     1
290
     0
176
     1
 90
       50
176
     1
 40
0.0
176
     1
 40
1.0
176
     1
 90
        0
176
     1
 62
    18
420
        0
176
     1
 90
       50
176
     1
 90
        3
176
     1
 62
     5
420
      255
176
     1
290
     0
176
     1
 90
       50
176
     1
 90
       50
176
     1
 90
       50
176
     1
290
     0
176
     1
 90
       50
176
     1
 62
   256
176
     0
 40
1.0
176
     0
 90
        2
176
     1
  1
strokes_ogs.tif
176
     1
290
     0
176
     1
 40
1.0
176
     1
 40
1.0
176
     1
  0
VISUALSTYLE
  5
1E5
102
{ACAD_REACTORS
330
EF
102
}
330
EF
100
AcDbVisualStyle
  2

 70
    21
177
     3
291
     1
 70
    58
 90
        2
176
     0
 90
        2
176
     0
 90
        0
176
     0
 90
        0
176
     0
 40
-0.6
176
     0
 40
-30.0
176
     0
 62
     7
176
     0
 90
        1
176
     0
 90
        4
176
     0
 62
     7
176
     0
 62
   257
176
     0
 90
        1
176
     0
 90
        1
176
     0
 40
1.0
176
     0
 90
        9
176
     2
 62
     7
176
     0
 40
1.0
176
     0
 90
        1
176
     0
 90
        6
176
     0
 90
        2
176
     0
 62
     7
176
     0
 90
        5
176
     0
 90
        0
176
     0
 90
        0
176
     0
290
     0
176
     0
 90
        1
176
     0
 40
0.0
176
     0
 90
        0
176
     0
290
     0
176
     1
290
     1
176
     1
290
     1
176
     1
290
     0
176
     1
290
     0
176
     1
290
     0
176
     1
290
     0
176
     1
290
     0
176
     1
290
     0
176
     1
 90
       50
176
     1
 40
0.0
176
     1
 40
1.0
176
     1
 90
        0
176
     1
 62
    18
420
        0
176
     1
 90
       50
176
     1
 90
        3
176
     1
 62
     5
420
      255
176
     1
290
     0
176
     1
 90
       50
176
     1
 90
       50
176
     1
 90
       50
176
     1
290
     0
176
     1
 90
       50
176
     1
 62
   256
176
     0
 40
1.0
176
     0
 90
        2
176
     1
  1
strokes_ogs.tif
176
     1
290
     0
176
     1
 40
1.0
176
     1
 40
1.0
176
     1
  0
VISUALSTYLE
  5
F9
102
{ACAD_REACTORS
330
EF
102
}
330
EF
100
AcDbVisualStyle
  2

 70
     8
177
     3
291
     0
 70
    58
 90
        2
176
     1
 90
        3
176
     1
 90
        0
176
     1
 90
        2
176
     1
 40
-0.6
176
     1
 40
30.0
176
     1
 62
     7
176
     1
 90
        0
176
     1
 90
        0
176
     1
 62
     7
176
     1
 62
   257
176
     1
 90
        1
176
     1
 90
        1
176
     1
 40
1.0
176
     1
 90
        8
176
     1
 62
   257
176
     1
 40
1.0
176
     1
 90
        1
176
     1
 90
        6
176
     1
 90
        2
176
     1
 62
     7
176
     1
 90
        3
176
     1
 90
        0
176
     1
 90
        0
176
     1
290
     0
176
     1
 90
       13
176
     1
 40
0.0
176
     1
 90
        0
176
     1
290
     0
176
     1
290
     1
176
     1
290
     1
176
     1
290
     0
176
     1
290
     0
176
     1
290
     0
176
     1
290
     0
176
     1
290
     0
176
     1
290
     0
176
     1
 90
       50
176
     1
 40
0.0
176
     1
 40
1.0
176
     1
 90
        0
176
     1
 62
    18
420
        0
176
     1
 90
       50
176
     1
 90
        3
176
     1
 62
     5
420
      255
176
     1
290
     0
176
     1
 90
       50
176
     1
 90
       50
176
     1
 90
       50
176
     1
290
     0
176
     1
 90
       50
176
     1
 62
   256
176
     0
 40
1.0
176
     0
 90
        2
176
     1
  1
strokes_ogs.tif
176
     1
290
     0
176
     1
 40
1.0
176
     1
 40
1.0
176
     1
  0
VISUALSTYLE
  5
1F3
102
{ACAD_REACTORS
330
EF
102
}
330
EF
100
AcDbVisualStyle
  2

 70
    27
177
     3
291
     0
 70
    58
 90
        2
176
     1
 90
        2
176
     1
 90
        1
176
     1
 90
        2
176
     1
 40
-0.6
176
     1
 40
30.0
176
     1
 62
     7
176
     1
 90
        0
176
     1
 90
        4
176
     1
 62
     7
176
     1
 62
   257
176
     1
 90
        1
176
     1
 90
        1
176
     1
 40
1.0
176
     1
 90
        8
176
     1
 62
   257
176
     1
 40
1.0
176
     1
 90
        1
176
     1
 90
        6
176
     1
 90
        2
176
     1
 62
     8
176
     1
 90
        3
176
     1
 90
        0
176
     1
 90
        0
176
     1
290
     0
176
     1
 90
        5
176
     1
 40
0.0
176
     1
 90
        0
176
     1
290
     0
176
     1
290
     1
176
     1
290
     1
176
     1
290
     0
176
     1
290
     0
176
     1
290
     0
176
     1
290
     0
176
     1
290
     0
176
     1
290
     0
176
     1
 90
       50
176
     1
 40
0.0
176
     1
 40
1.0
176
     1
 90
        0
176
     1
 62
    18
420
        0
176
     1
 90
       50
176
     1
 90
        3
176
     1
 62
     5
420
      255
176
     1
290
     0
176
     1
 90
       50
176
     1
 90
       50
176
     1
 90
       50
176
     1
290
     0
176
     1
 90
       50
176
     1
 62
   256
176
     0
 40
1.0
176
     0
 90
        2
176
     1
  1
strokes_ogs.tif
176
     1
290
     0
176
     1
 40
1.0
176
     1
 40
1.0
176
     1
  0
VISUALSTYLE
  5
1F2
102
{ACAD_REACTORS
330
EF
102
}
330
EF
100
AcDbVisualStyle
  2

 70
    26
177
     3
291
     0
 70
    58
 90
        2
176
     1
 90
        2
176
     1
 90
        1
176
     1
 90
        2
176
     1
 40
-0.6
176
     1
 40
30.0
176
     1
 62
     7
176
     1
 90
        1
176
     1
 90
       10
176
     1
 62
     7
176
     1
 62
   257
176
     1
 90
        2
176
     1
 90
        1
176
     1
 40
1.0
176
     1
 90
        8
176
     1
 62
   257
176
     1
 40
1.0
176
     1
 90
        1
176
     1
 90
        6
176
     1
 90
        2
176
     1
 62
     7
176
     1
 90
        3
176
     1
 90
        0
176
     1
 90
        0
176
     1
290
     0
176
     1
 90
        5
176
     1
 40
0.0
176
     1
 90
        0
176
     1
290
     0
176
     1
290
     1
176
     1
290
     1
176
     1
290
     0
176
     1
290
     0
176
     1
290
     0
176
     1
290
     0
176
     1
290
     0
176
     1
290
     0
176
     1
 90
       50
176
     1
 40
0.0
176
     1
 40
1.0
176
     1
 90
        0
176
     1
 62
    18
420
        0
176
     1
 90
       50
176
     1
 90
        3
176
     1
 62
     5
420
      255
176
     1
290
     0
176
     1
 90
       50
176
     1
 90
       50
176
     1
 90
       50
176
     1
290
     0
176
     1
 90
       50
176
     1
 62
   256
176
     0
 40
1.0
176
     0
 90
        2
176
     1
  1
strokes_ogs.tif
176
     1
290
     0
176
     1
 40
1.0
176
     1
 40
1.0
176
     1
  0
VISUALSTYLE
  5
1EF
102
{ACAD_REACTORS
330
EF
102
}
330
EF
100
AcDbVisualStyle
  2

 70
    23
177
     3
291
     0
 70
    58
 90
        2
176
     1
 90
        2
176
     1
 90
        3
176
     1
 90
        0
176
     1
 40
-0.6
176
     1
 40
-30.0
176
     1
 62
     7
176
     1
 90
        2
176
     1
 90
        2
176
     1
 62
     7
176
     1
 62
     7
176
     1
 90
        1
176
     1
 90
        1
176
     1
 40
40.0
176
     1
 90
        8
176
     1
 62
     7
176
     1
 40
1.0
176
     1
 90
        1
176
     1
 90
        6
176
     1
 90
        2
176
     1
 62
     7
176
     1
 90
        3
176
     1
 90
        0
176
     1
 90
        0
176
     1
290
     0
176
     1
 90
        1
176
     1
 40
0.0
176
     1
 90
        0
176
     1
290
     0
176
     1
290
     1
176
     1
290
     1
176
     1
290
     0
176
     1
290
     0
176
     1
290
     0
176
     1
290
     0
176
     1
290
     0
176
     1
290
     0
176
     1
 90
       50
176
     1
 40
0.0
176
     1
 40
1.0
176
     1
 90
        0
176
     1
 62
    18
420
        0
176
     1
 90
       50
176
     1
 90
        3
176
     1
 62
     5
420
      255
176
     1
290
     0
176
     1
 90
       50
176
     1
 90
       50
176
     1
 90
       50
176
     1
290
     0
176
     1
 90
       50
176
     1
 62
   256
176
     0
 40
1.0
176
     0
 90
        2
176
     1
  1
strokes_ogs.tif
176
     1
290
     0
176
     1
 40
1.0
176
     1
 40
1.0
176
     1
  0
VISUALSTYLE
  5
1F0
102
{ACAD_REACTORS
330
EF
102
}
330
EF
100
AcDbVisualStyle
  2

 70
    24
177
     3
291
     0
 70
    58
 90
        1
176
     1
 90
        2
176
     1
 90
        2
176
     1
 90
        0
176
     1
 40
-0.6
176
     1
 40
-30.0
176
     1
 62
     7
176
     1
 90
        2
176
     1
 90
        2
176
     1
 62
     7
176
     1
 62
     7
176
     1
 90
        1
176
     1
 90
        1
176
     1
 40
40.0
176
     1
 90
       11
176
     1
 62
     7
176
     1
 40
1.0
176
     1
 90
        1
176
     1
 90
        6
176
     1
 90
        2
176
     1
 62
     7
176
     1
 90
        6
176
     1
 90
        0
176
     1
 90
        0
176
     1
290
     0
176
     1
 90
        1
176
     1
 40
0.0
176
     1
 90
        0
176
     1
290
     0
176
     1
290
     1
176
     1
290
     1
176
     1
290
     0
176
     1
290
     0
176
     1
290
     0
176
     1
290
     0
176
     1
290
     0
176
     1
290
     0
176
     1
 90
       50
176
     1
 40
0.0
176
     1
 40
1.0
176
     1
 90
        0
176
     1
 62
    18
420
        0
176
     1
 90
       50
176
     1
 90
        3
176
     1
 62
     5
420
      255
176
     1
290
     0
176
     1
 90
       50
176
     1
 90
       50
176
     1
 90
       50
176
     1
290
     0
176
     1
 90
       50
176
     1
 62
   256
176
     0
 40
1.0
176
     0
 90
        2
176
     1
  1
strokes_ogs.tif
176
     1
290
     0
176
     1
 40
1.0
176
     1
 40
1.0
176
     1
  0
VISUALSTYLE
  5
FC
102
{ACAD_REACTORS
330
EF
102
}
330
EF
100
AcDbVisualStyle
  2

 70
    13
177
     3
291
     1
 70
    58
 90
        2
176
     1
 90
        2
176
     1
 90
        1
176
     1
 90
        0
176
     1
 40
-0.6
176
     1
 40
-30.0
176
     1
 62
     7
176
     1
 90
        1
176
     1
 90
        4
176
     1
 62
     7
176
     1
 62
   257
176
     1
 90
        1
176
     1
 90
        1
176
     1
 40
1.0
176
     1
 90
       12
176
     1
 62
     7
176
     1
 40
1.0
176
     1
 90
        1
176
     1
 90
        6
176
     1
 90
        2
176
     1
 62
     7
176
     1
 90
        5
176
     1
 90
        0
176
     1
 90
        0
176
     1
290
     0
176
     1
 90
        1
176
     1
 40
0.0
176
     1
 90
        0
176
     1
290
     0
176
     1
290
     1
176
     1
290
     1
176
     1
290
     0
176
     1
290
     0
176
     1
290
     0
176
     1
290
     0
176
     1
290
     0
176
     1
290
     0
176
     1
 90
       50
176
     1
 40
0.0
176
     1
 40
1.0
176
     1
 90
        0
176
     1
 62
    18
420
        0
176
     1
 90
       50
176
     1
 90
        3
176
     1
 62
     5
420
      255
176
     1
290
     0
176
     1
 90
       50
176
     1
 90
       50
176
     1
 90
       50
176
     1
290
     0
176
     1
 90
       50
176
     1
 62
   256
176
     0
 40
1.0
176
     0
 90
        2
176
     1
  1
strokes_ogs.tif
176
     1
290
     0
176
     1
 40
1.0
176
     1
 40
1.0
176
     1
  0
VISUALSTYLE
  5
F6
102
{ACAD_REACTORS
330
EF
102
}
330
EF
100
AcDbVisualStyle
  2

 70
     5
177
     3
291
     0
 70
    58
 90
        0
176
     1
 90
        2
176
     1
 90
        0
176
     1
 90
        0
176
     1
 40
-0.6
176
     1
 40
-30.0
176
     1
 62
     7
176
     1
 90
        1
176
     1
 90
        4
176
     1
 62
     7
176
     1
 62
   257
176
     1
 90
        1
176
     1
 90
        1
176
     1
 40
1.0
176
     1
 90
        0
176
     1
 62
   257
176
     1
 40
1.0
176
     1
 90
        1
176
     1
 90
        6
176
     1
 90
        2
176
     1
 62
     7
176
     1
 90
        3
176
     1
 90
        0
176
     1
 90
        0
176
     1
290
     0
176
     1
 90
        1
176
     1
 40
0.0
176
     1
 90
        0
176
     1
290
     0
176
     1
290
     1
176
     1
290
     1
176
     1
290
     0
176
     1
290
     0
176
     1
290
     0
176
     1
290
     0
176
     1
290
     0
176
     1
290
     0
176
     1
 90
       50
176
     1
 40
0.0
176
     1
 40
1.0
176
     1
 90
        0
176
     1
 62
    18
420
        0
176
     1
 90
       50
176
     1
 90
        3
176
     1
 62
     5
420
      255
176
     1
290
     0
176
     1
 90
       50
176
     1
 90
       50
176
     1
 90
       50
176
     1
290
     0
176
     1
 90
       50
176
     1
 62
   256
176
     0
 40
1.0
176
     0
 90
        2
176
     1
  1
strokes_ogs.tif
176
     1
290
     0
176
     1
 40
1.0
176
     1
 40
1.0
176
     1
  0
VISUALSTYLE
  5
1F1
102
{ACAD_REACTORS
330
EF
102
}
330
EF
100
AcDbVisualStyle
  2

 70
    25
177
     3
291
     0
 70
    58
 90
        2
176
     1
 90
        2
176
     1
 90
        1
176
     1
 90
        1
176
     1
 40
0.5
176
     1
 40
-30.0
176
     1
 62
     7
176
     1
 90
        1
176
     1
 90
        0
176
     1
 62
     7
176
     1
 62
   257
176
     1
 90
        1
176
     1
 90
        1
176
     1
 40
1.0
176
     1
 90
        8
176
     1
 62
     7
176
     1
 40
1.0
176
     1
 90
        1
176
     1
 90
        6
176
     1
 90
        2
176
     1
 62
     7
176
     1
 90
        3
176
     1
 90
        0
176
     1
 90
        0
176
     1
290
     0
176
     1
 90
       13
176
     1
 40
0.0
176
     1
 90
        0
176
     1
290
     0
176
     1
290
     1
176
     1
290
     1
176
     1
290
     0
176
     1
290
     0
176
     1
290
     0
176
     1
290
     0
176
     1
290
     0
176
     1
290
     0
176
     1
 90
       50
176
     1
 40
0.0
176
     1
 40
1.0
176
     1
 90
        0
176
     1
 62
    18
420
        0
176
     1
 90
       50
176
     1
 90
        3
176
     1
 62
     5
420
      255
176
     1
290
     0
176
     1
 90
       50
176
     1
 90
       50
176
     1
 90
       50
176
     1
290
     0
176
     1
 90
       50
176
     1
 62
   256
176
     0
 40
1.0
176
     0
 90
        2
176
     1
  1
strokes_ogs.tif
176
     1
290
     0
176
     1
 40
1.0
176
     1
 40
1.0
176
     1
  0
DICTIONARYVAR
  5
11B8
102
{ACAD_REACTORS
330
5E
102
}
330
5E
100
DictionaryVariables
280
     0
  1
1:1
  0
DICTIONARYVAR
  5
145
102
{ACAD_REACTORS
330
5E
102
}
330
5E
100
DictionaryVariables
280
     0
  1
Standard
  0
DICTIONARYVAR
  5
84
102
{ACAD_REACTORS
330
5E
102
}
330
5E
100
DictionaryVariables
280
     0
  1
Standard
  0
DICTIONARYVAR
  5
227
102
{ACAD_REACTORS
330
5E
102
}
330
5E
100
DictionaryVariables
280
     0
  1
Metric50
  0
DICTIONARYVAR
  5
228
102
{ACAD_REACTORS
330
5E
102
}
330
5E
100
DictionaryVariables
280
     0
  1
Metric50
  0
DICTIONARYVAR
  5
5F
102
{ACAD_REACTORS
330
5E
102
}
330
5E
100
DictionaryVariables
280
     0
  1
2
  0
DICTIONARYVAR
  5
63
102
{ACAD_REACTORS
330
5E
102
}
330
5E
100
DictionaryVariables
280
     0
  1
1
  0
DICTIONARYVAR
  5
F7C
102
{ACAD_REACTORS
330
5E
102
}
330
5E
100
DictionaryVariables
280
     0
  1
0
  0
DICTIONARYVAR
  5
1AE
102
{ACAD_REACTORS
330
5E
102
}
330
5E
100
DictionaryVariables
280
     0
  1
0
  0
DICTIONARYVAR
  5
1AF
102
{ACAD_REACTORS
330
5E
102
}
330
5E
100
DictionaryVariables
280
     0
  1
0
  0
DICTIONARYVAR
  5
F7A
102
{ACAD_REACTORS
330
5E
102
}
330
5E
100
DictionaryVariables
280
     0
  1
2
  0
DICTIONARYVAR
  5
FC8
102
{ACAD_REACTORS
330
5E
102
}
330
5E
100
DictionaryVariables
280
     0
  1
1.570796
  0
DICTIONARYVAR
  5
FC9
102
{ACAD_REACTORS
330
5E
102
}
330
5E
100
DictionaryVariables
280
     0
  1
1.570796
  0
DICTIONARYVAR
  5
F79
102
{ACAD_REACTORS
330
5E
102
}
330
5E
100
DictionaryVariables
280
     0
  1
1
  0
DICTIONARYVAR
  5
F7B
102
{ACAD_REACTORS
330
5E
102
}
330
5E
100
DictionaryVariables
280
     0
  1
127
  0
DICTIONARYVAR
  5
FCA
102
{ACAD_REACTORS
330
5E
102
}
330
5E
100
DictionaryVariables
280
     0
  1
2
  0
DICTIONARY
  5
1007
330
21C
100
AcDbDictionary
280
     1
281
     1
  3
ACAD_XREC_ROUNDTRIP
360
16D0
  0
DICTIONARY
  5
1F9
330
ED
100
AcDbDictionary
280
     1
281
     1
  3
FBXASSET
360
1FA
  0
DICTIONARY
  5
1F7
330
EC
100
AcDbDictionary
280
     1
281
     1
  3
FBXASSET
360
1F8
  0
DICTIONARY
  5
173
330
EE
100
AcDbDictionary
280
     1
281
     1
  3
FBXASSET
360
1FB
  0
DICTIONARY
  5
1005
330
21A
100
AcDbDictionary
280
     1
281
     1
  3
ACAD_XREC_ROUNDTRIP
360
16D1
  0
DICTIONARY
  5
16D2
330
7F
100
AcDbDictionary
280
     1
281
     1
  3
ACAD_ROUNDTRIP_2008_TABLESTYLE_CELLSTYLEMAP
360
16D3
  0
XRECORD
  5
16D0
102
{ACAD_REACTORS
330
1007
102
}
330
1007
100
AcDbXrecord
280
     1
102
DISPLAYNAME
  1
Metric50
102
FLAGS
 90
        0
  0
XRECORD
  5
1FA
102
{ACAD_REACTORS
330
1F9
102
}
330
1F9
100
AcDbXrecord
280
     1
 70
     1
 90
429727718
  1
D62C5603-E3A1-4AEA-B7FB-FE5D8D0755AF
310
504B03040A0000080000CC70623B3DEE336E79000000790000001B0000006175746F6465736B2D64657369676E2D7061636B6167652E786D6C3C3F786D6C2076657273696F6E3D22312E302220656E636F64696E673D227574662D3822203F3E3C666F726D6174733E3C666F726D61743E687474703A2F2F736368656D612E
310
6175746F6465736B2E636F6D2F64657369676E2D7061636B6167652F323030393C2F666F726D61743E3C2F666F726D6174733E504B0304140006080800CC70623BD486FD9CA0000000F4000000130000005B436F6E74656E745F54797065735D2E786D6C7D8EC10E82300C865F65E91D8A1E8C310C0EEA1BF002731658846E
310
D98AC1B77784ABF1D8FE5FBFBF75BBCE937A534CCEB38643598122B6FEE978D0B0485F9C41B54DDD7D022595594E1A469170414C76A4D9A4D207E29CF43ECE46F218070CC6BECC4078ACAA135ACF422C856C0E68EA1BF5669944DDD7BCDE7B1F8E415D77AECB980613C2E4AC91FC167A2B244592486606FC29C8FD7F045B9A
310
EF7053A7E60B504B0304140006080800CC70623B853B8169EB0000007C01000008000000636F72652E786D6C8D90416EC3201045AF62CDB6C206821CC7C244919D9CA01740401C94182C03558F5F9C3852BBEB6A467FFE9B197D7EFC9E1EC5975982F5AE035262288C535E5B377690E21535501C055FBC8FBF6C503839990E
310
5619041F179FE64D52DE45E362569DD7661365082642A11EB9E920A89B99642953CC8E702F67A9EE7234257977194EC9EAE275C4EABCCF5EAD5940D4AC6F0E35A568B8F43562CD7046CD199FD07E60174276A7BE677B5EADB0E0D14EEFFB6A31321A0D82627C4084204C3F096B71DD52F6819B16635EADF63F509AF53FA164
310
5DDCD1EDDD17164090FCC8732078B56691CB33A85CD7DCC40F504B0304140006080800CC70623B55019EA25F0000007C00000007000000636E782E786D6C4DCB3B0E80201045D1AD90E915ED2CF8AC45050C11660C8261F98AB1B07AC9C97D42D718D865D3E909258CFD00CCE24AC6E326A164D74DC0B4128928FF32603847
310
2BA13128B1252AC747C6BAB984FC68F0B87FE8960A5C09FE86CFB69FBA01504B0304140006080800CC70623BDBABAAF470010000D40300000C0000006662782F636F72652E786D6CC553D16E823014FD95A6AF4B694182CC941A83FA05FB810A9511A125A5257EFE2E82712ECEB8A7F100CD39F7F69E734AF9FADC366850B6
310
AF8DCE7018308C942E4C59EB2AC3DE1D498AD15A706B8CFB56869196ADCAF00863C12B6B7C374385D14E6907A836A59A41D9F7CA615434B0C8705F7CAA5606D23BA8E84F41278B93AC54100640439DE0BDB320004D43C63716C7C399D30917DCFBBA9CD9BA8469F5B156168B24CED3F7248AC8769F27244EB73B92EED8862C
310
B7F13E0C179B3C8F979C8ECD82BBBABDAA2BAC924E9558448CBD9330242CFA08E3154B5651FCC6D215639C8EE5774DBE2B5F6CF2B5768B68963BB5F5588420E442FC700B1139D4CB01F450C1E918227C2E09DF070D8140C84E1E9AAB8F1340832A9CB13130A5F1376A908D57309505ECF2A0DF179C4E9D30F5B239B87E3823
310
7A79C6F31DE1A8A5AEC08474B03C7837EAE4938639B44E5932B833D2C6B6B279CDC613877FA26EE21F4A2A4C63EC7F29A2F301D1F9F7A0E37D145F504B0304140006080800CC70623B9C113CC27E0000009D0000000B0000006662782F636E782E786D6C4DCCDF0A83201C86E15B91DFB94BFB330DD428C8FB886521330DA7
310
6397BF1A1DECE883878F57749FCDA1B7892F1BBC047A23808C7F84D9FA55424E0BE6803A256208E9EF06C84F9B91703228B1C690F78B66B34CD9A5439DF5CF0BFBF65E35BCA1B8D6A5C6F540381E886698B5741C695F9503EBA150A2F8958E3DC3EA0B504B0304140006080800CC70623B7DF2F77C2A010000120200003100
310
00006662782F41393633353835312D344632462D344230382D423046372D3739314545314133324237412F636F72652E786D6C8D51DB8EC22014FC15C2939B0D2DB4B45643319AE817EC0F6041255A68B86CFCFC856D4D76DF7CE190393373060EDB3DC707F856CE6B6B7A480A0C81328395DA5C7B18C3057510EC3873D686
310
3F34088C18550F330C39BB3A1BA7051AAC09CA84841A2BD5020AEF55806078A44B0FFD7053A328440C89E1EFC52486BBB8AA8214A99D789CF9E05200300FC927E4FB4D5B375D43103D5527440FB843077C5AA3F5861C8F645F5787F59E95B390B318B55CE45AA638FAA2957BD7248B390B7A7CC51F9C124149C82B8C378810
310
84AB2F42B7B8DD56F413775B8C5999E9FF4471926F8AA236A1AE96B8B3CC434E5839373893369E1FAF30EA395917409EB7F26AF8801C171837A4A6AC9C89E9F9C9B1A58BA30FD6A5EF5DDDCF894B9AD9B6A59C957943A9FCAE2FD5BC4DFE03504B0304140006080800CC70623BAD7543B64E01000033030000300000006662
310
782F41393633353835312D344632462D344230382D423046372D3739314545314133324237412F636E782E786D6CD593CD6EC32010845F0571AD6CE3D48AD20813A9873E410FBD12D82434182C7EAAE6EDBB2424CD25871E7B41D6EC30B3FA84F9E67BB2E40B4234DE8DB46F1925E094D7C6ED479AD3AE5951B2113C789FEE
310
6C943839C1488B4C05DF079FE72A69D8C96C13AAD6B8631503449F83828872B949AC57D26200B826A308D316B4064D6E46FCDA41C05550DC9E483A00797BFD207EFB092A45DE9514C1BBD22178396BD39D891265658C238DEA00936C654E5E433CB65A26D9F6EDB5EBC14EBF49A45CB856E66048291F6939A9A81BB5C89177
310
38143CA680F4AA299D66A042CEB3354A2684DC9D8D178FE0D9B8B41CAAD720F880EE7EF93C0C18769E099ECC04D5A102C8049A8A05632F4DDF376CF1DE0F6BB65C2F8627B65A33C6BB62177CEBBDAD973006829F89F22E814B54F4BC2BE347F8AA8F681390B50FA73F804400B5F542E796F19FF974E7F78DB802FE05E20750
310
4B0304140006080800CC70623BE75B7789680500003C100000340000006662782F41393633353835312D344632462D344230382D423046372D3739314545314133324237412F6F626A656374732E786D6CAD575B8F9B3818FD2B887D06C22499CB8AA1CA655245D5B455A356FB305264C061D8018C6C3393D95FBFC7600890
310
A4CD5EF210B0B1BFEBF98E3F7B1FF6596ABC522E1296DF9BAE3D320D9A872C4AF2F8DE2CE5CEBA358D0FBEC719939D65A691938CDE9B6ADAF4BD98B3B2D05311DD91329583D9D5FC0F438434A7A611A644887B5384CF34233629258BA878B12322891DEFF6B66BD70BFB62634E8AE781D082709A4B588AF91C528CDA28B73F
310
1C998EEF39EABBEFA97FBD6A7C7E9553F9D3D79FE442923C3C523610337627CB87ABE99D359D4CC6D6E4FACAB5E6ABF9D2726FC6A3C5F56271377BB88362213924694B38DD99FE47C48627A1E7D49F5A8BB5E1A74C0A599ED3B0F21F1E56366B89112D681E218F0915D0D6F17AD41FBA2A369DCF6335D62ABBD39779D5DDD1
310
11D4D8DE3CBB96B2E04FB8202E41051754A1AA8E8F76B4C6DFE810B580B1547F4B84911149794252234D024EF8BBE963A95AE27B3D310A9D5C215C7960FAEE415ED75694C6AFB17BCACA5D99A60A9AA65F217B0BFC53292ACB92BF283FAD0D3621576592CB5BED907C2FA8E9DF794E35E97BEA31BED21FEB401ABB94C44839
310
DCACBF0E1C5DA8DA5B2F4DFFD32AD86F543D9E565E7056502E157C00AD2671CD534549AB752FCA9CDA00677A313F04E51B22FF19E57B300579E3C97EB29F682D92935CEC18CF901B7B54FD8C51F362B56FC72FE0B3C1EAE335EDCCBF5AEC39ADB17DC238973F804BA5E6F6BFE7AF1FB32E523BE9F3BD571418E3631DCA4D48
310
5250CF639223210A9446CA30052EDF057BD35F8329C1ECD84552BF0DC8D18BE7BCE23BFE6BD960AB4A7DE79923A103BEBD80F911CBAA2C60DB19B01CF164A5583B772EE6D3FFA56666CBCDA74DC97724A48F9A58967497E489C4D979006FD7A05E227A1EBDD0F737C623387A9C844D3709995625106D157315F8B8392CD4E0
310
A0B9A720C4BE9829CEF37EA1E13111214D53925356365ADA634861B52519DD27A00AEB808EAF0628E6F435519D446F45CF2C9CF5214F0A15B2F6D06B79DA3EE3CBF7F56780D2F4E7EF73A0F5E5B02A38D07DC852C6B7C1FBB6664213E0C39E3EBA7FF4E1AD23EA2829407C85E586727488B751B2DB9502BC7B228A3FD68B6E
310
A65A22397E690AA8D158D7E404EC8CDA235CC3B7D1898680131CEC2CDF2638C65196279577750F15884AEE19F94199155B92B13297978469D4F8D358DF0AEF7631E28DC8F0D9F437D5D39A83B2231A1D52D543813A824EF8D44BCFF2FA6A31BD1E8DAD87F1CCB526B3879935BF59CDADD5C37479BB1CDD4CA7B3556B516589
310
EF352754B706114D9C885EC9131DE6EFEB43D99AFE2391C2F958179413D7CFEF6B1B6DB1E7600F00DE6E5C67454A339A4BA2E0FBA85ED26F045D454F463DBFCE484C2F90F2E5E3666003662ED8F755951A7D1BECD5B30B550B2785C8E7320B7292A4838DDA71BBC863ED7613CAF659337A3354231D4FF4A182A54904C2898C
310
98B28C4AD0CE056CCF332A80986E571EE9DBC305BB5FEB7E509220A58D25CF042D712A806AC0AD0C657FDEF80D2D9CEAA2EE4D1C76F60BFE74219A06527D6F82DF6412526107381E55E353090704D085B52408A8913C4ED159D79BDA71BB4BC506F4831350EB6F975CD22D69BF7AC49B91A2C0A9DDA3D5CA36AD20FC478E37
310
E61844E2352865EBCB61A275A65283CAAA9DD27703B4102F5AF51EF5F573B75CBB5AD38BC845F7A49F82A0966A49C2E3EA5EA0ECD326CD965F1DB402C6FA8B51A4658C5C5E2EC9E214602E55810345408596591009A82E7E7FFACA19EEA299B14A0081A705CB3296EBC14CDF658DCD336EA6D1136881AAEB87B81AB9EE53D5
310
F5EB8BC8362082DA24122F98680A4E7930C01A0079749CEA14382A0783E5EBA5A10F8C098456A03D6A4AEB6BB881E2513747552A5DB22C7EDAF83BD5528081A365F7FF06504B0304140006080000CC70623B000000000000000000000000350000006662782F41393633353835312D344632462D344230382D423046372D37
310
39314545314133324237412F76657274696365732E62696E504B0304140006080800CC70623BF270F1330600000004000000360000006662782F41393633353835312D344632462D344230382D423046372D3739314545314133324237412F747269616E676C65732E62696E636660600000504B0304140006080000CC7062
310
3B000000000000000000000000370000006662782F41393633353835312D344632462D344230382D423046372D3739314545314133324237412F617474726962757465732E62696E504B0304140006080800CC70623B08DA0BD19000000041010000360000006662782F41393633353835312D344632462D344230382D4230
310
46372D3739314545314133324237412F6469726563746F72792E786D6C858F410AC3201045AF22B36F53E9A60B35CBEEBAE80D244E44489C6234F4F835464A48035D0DF398FF9F8AF63D0E6CC63039F212F8F9020C7D47C6792B21C5FE7403D62A1188E2E60C98D7234A5830286103A55745067B9D86B8A3CF9C7F90C11DE6
310
07FB144396D7B6A82D282E9A152AD114D5EF2CB866EEE831B8EEA07A7BB5A8D7D61A2BAAEB7FD5F70921FF497D00504B0304140006080800CC70623BEDD1DC58FD000000A00100003B0000006662782F41393633353835312D344632462D344230382D423046372D3739314545314133324237412F7265736F75726365732F
310
636F72652E786D6C8D504B6E833010BD0A9A6D65B00922041947112427E8052C33A156828DFCA97AFC9A40A576D7CDCCE87D344F8F9FBFE667F689CE6B6B3A6039850C8DB2A336530731DC4903D95970676DF82583CCC8193B5861107C72362E3BA4AC096842428D1D7107A5F7182053CF7474E0D507CE32973124857FE48B
310
540F3961CEF244279DE03EB81420DB9EAC1384436FA353E879B1B182C7A8C75DA3C7F453DF353A1075D537A7BA6464B8F535A99AE14A9A2BBD90E350DD183B5CFABE3AF262350B1EF4FC9351399401471025A527C218A1E53BAB5A5AB765F5469B96525EACF23FA6B88CFF34456DC2A1DCE36E360F82A5202F42F062ED2BAD
310
579969AFDD8A6F504B010214000A0000080000CC70623B3DEE336E79000000790000001B00000000000000000000000000000000006175746F6465736B2D64657369676E2D7061636B6167652E786D6C504B01021400140006080800CC70623BD486FD9CA0000000F40000001300000000000000000000000000B20000005B
310
436F6E74656E745F54797065735D2E786D6C504B01021400140006080800CC70623B853B8169EB0000007C010000080000000000000000000000000083010000636F72652E786D6C504B01021400140006080800CC70623B55019EA25F0000007C000000070000000000000000000000000094020000636E782E786D6C504B
310
01021400140006080800CC70623BDBABAAF470010000D40300000C00000000000000000000000000180300006662782F636F72652E786D6C504B01021400140006080800CC70623B9C113CC27E0000009D0000000B00000000000000000000000000B20400006662782F636E782E786D6C504B01021400140006080800CC70
310
623B7DF2F77C2A010000120200003100000000000000000000000000590500006662782F41393633353835312D344632462D344230382D423046372D3739314545314133324237412F636F72652E786D6C504B01021400140006080800CC70623BAD7543B64E010000330300003000000000000000000000000000D2060000
310
6662782F41393633353835312D344632462D344230382D423046372D3739314545314133324237412F636E782E786D6C504B01021400140006080800CC70623BE75B7789680500003C10000034000000000000000000000000006E0800006662782F41393633353835312D344632462D344230382D423046372D3739314545
310
314133324237412F6F626A656374732E786D6C504B01021400140006080000CC70623B0000000000000000000000003500000000000000000000000000280E00006662782F41393633353835312D344632462D344230382D423046372D3739314545314133324237412F76657274696365732E62696E504B01021400140006
310
080800CC70623BF270F133060000000400000036000000000000000000000000007B0E00006662782F41393633353835312D344632462D344230382D423046372D3739314545314133324237412F747269616E676C65732E62696E504B01021400140006080000CC70623B0000000000000000000000003700000000000000
310
000000000000D50E00006662782F41393633353835312D344632462D344230382D423046372D3739314545314133324237412F617474726962757465732E62696E504B01021400140006080800CC70623B08DA0BD1900000004101000036000000000000000000000000002A0F00006662782F41393633353835312D344632
310
462D344230382D423046372D3739314545314133324237412F6469726563746F72792E786D6C504B01021400140006080800CC70623BEDD1DC58FD000000A00100003B000000000000000000000000000E1000006662782F41393633353835312D344632462D344230382D423046372D3739314545314133324237412F7265
310
736F75726365732F636F72652E786D6C504B0506000000000E000E0080040000641100000000
  0
XRECORD
  5
1F8
102
{ACAD_REACTORS
330
1F7
102
}
330
1F7
100
AcDbXrecord
280
     1
 70
     1
 90
429727718
  1
30362254-06B7-45E0-A893-8CFA70E3D6BC
310
504B03040A0000080000CC70623B3DEE336E79000000790000001B0000006175746F6465736B2D64657369676E2D7061636B6167652E786D6C3C3F786D6C2076657273696F6E3D22312E302220656E636F64696E673D227574662D3822203F3E3C666F726D6174733E3C666F726D61743E687474703A2F2F736368656D612E
310
6175746F6465736B2E636F6D2F64657369676E2D7061636B6167652F323030393C2F666F726D61743E3C2F666F726D6174733E504B0304140006080800CC70623BD486FD9CA0000000F4000000130000005B436F6E74656E745F54797065735D2E786D6C7D8EC10E82300C865F65E91D8A1E8C310C0EEA1BF002731658846E
310
D98AC1B77784ABF1D8FE5FBFBF75BBCE937A534CCEB38643598122B6FEE978D0B0485F9C41B54DDD7D022595594E1A469170414C76A4D9A4D207E29CF43ECE46F218070CC6BECC4078ACAA135ACF422C856C0E68EA1BF5669944DDD7BCDE7B1F8E415D77AECB980613C2E4AC91FC167A2B244592486606FC29C8FD7F045B9A
310
EF7053A7E60B504B0304140006080800CC70623B1EC5D7A3EB0000007C01000008000000636F72652E786D6C8D90416EC3201045AF82665B6103C6756C6122AB4D4ED00B204C5C94182C03558F5F9C3852BBEB6A467FFE9B197D71FC9E6FE8CBACC17AD7032D0820E3B41FAD9B7A48F1820F808E52ACDEC75F36404ECDA687
310
4D0629A6D5A76597B477D1B89855E747B38B2A041301E95B6E7A08FAD3CCAA50296647B8168BD2573599823EBB0CA76447F43862C7BCCF5EAC59410E4DDD9C7973C2755553CCCFA4C603E3040F1565ED3B1FDE4E432BCA0D9622DAF9795FAF464533826484B498524CD807E51D79ED187F21878E10516EF63F505AC67F42C9
310
BA58B1FDDD071640D2FCC87D2045B96591CB3DA85CB7DCE40F504B0304140006080800CC70623B55019EA25F0000007C00000007000000636E782E786D6C4DCB3B0E80201045D1AD90E915ED2CF8AC45050C11660C8261F98AB1B07AC9C97D42D718D865D3E909258CFD00CCE24AC6E326A164D74DC0B4128928FF32603847
310
2BA13128B1252AC747C6BAB984FC68F0B87FE8960A5C09FE86CFB69FBA01504B0304140006080800CC70623B8C9102E971010000D40300000C0000006662782F636F72652E786D6CC5535B6E833010BC8AE5DF0A6C08340F1947A84D4ED00B38C6A128602363A31CBFCB234A53A551FA553EC09AD9F5CE8C31DB9E9B1AF5CA
310
7695D1198E428A91D2D214952E33ECDD315861B4E5CC1AE3BE9561A445A3323CC098B3D21ADFCE9034DA29ED00D5A6503328BA4E398C640D8B0C77F253352214DE4145770A5B214FA2546114020D759C75CE8200340D19DE981F0F6746269C33EFAB6266AB02A655C74A59CCF365BADC27CB5D902ED22848F6340DF238A141
310
BE88E2F57B92BFEDF23523433367AE6A2EEAA455C2A902F398D2751045018D3FA264435F3771F242571B4A1919CA6F9A7C5B3CD9E42BED16F12C776AEB308F40C848FC700B1139D4891EF410CEC810227CC6846F8386402064270EF5C5C709A05E49676C024C61FC95EA45ED154CA5211D1FF4FB8291A913A68E9B83EBBB33
310
E2A7673CDE118E5AE8124C0807CB8377834E366998436B950D7A7746DAD846D4CFD978E0F04FD455FC5D49D2D4C6FE9722321F10997F0F32DC47FE05504B0304140006080800CC70623BFFEA85907E0000009D0000000B0000006662782F636E782E786D6C4DCCD10A83201886E15B91FFDC95D95A811AB6F23E625948A6C3
310
E9D8E5AF46073BFAE0E1E365ED67B3E8ADC3CB78C7815C7240DA3DFC64DCC221C519D7805AC182F7F1EF06C88D9BE6703008B6049F9E274D7A1E938DBB5AE3D6131B2589BA0D3D965551E0B2EA732C9B9A624AAEB41E3A557677029960D9AFB4EF11165F504B0304140006080800CC70623B4FEEA4082C0100001202000031
310
0000006662782F39464131463745442D413632322D343644302D413938332D3331353338454246344243312F636F72652E786D6C8D515B6EC32010BC0AE2AB55850DD871ED0813254D72825EC00192A2C460F1A872FC42ED48ED5F7E00CDCECCCEB26C731F6FE05B39AFADE921293004CA082BB5B9F43086336A21D870E6AC
310
0D7F68109861543DCC30E4ECE26C9C164858139409093556AA051CBC570102714B8F1E7AF1A5C6A11862480C7F2DA6415C878B2A4891CA89C7990F2E050073937C42DE1DB7E4F87ED8A36D4329AA9B3D46DBAEAD504556557BD81DEBDD0761E52CE42C462D17B996298E3E6BE59E35C962CE821E1FF18553435012728A7187
310
0841987E927A8D9B35ADDF70BBC6989599FE4F1427F9A4286A132ABAC49D651EF234CD5CE04CDA78BA3DC2A8FB645D00B9DF8B57E215725C60BCA2A463E54C4CE327C7A65E1C7DB02E7DEFCBF594B864C5CA6CDBD49C957943E9FA5D5FBAF336F90F504B0304140006080800CC70623BAD7543B64E01000033030000300000
310
006662782F39464131463745442D413632322D343644302D413938332D3331353338454246344243312F636E782E786D6CD593CD6EC32010845F0571AD6CE3D48AD20813A9873E410FBD12D82434182C7EAAE6EDBB2424CD25871E7B41D6EC30B3FA84F9E67BB2E40B4234DE8DB46F1925E094D7C6ED479AD3AE5951B2113C
310
789FEE6C943839C1488B4C05DF079FE72A69D8C96C13AAD6B8631503449F83828872B949AC57D26200B826A308D316B4064D6E46FCDA41C05550DC9E483A00797BFD207EFB092A45DE9514C1BBD22178396BD39D891265658C238DEA00936C654E5E433CB65A26D9F6EDB5EBC14EBF49A45CB856E66048291F6939A9A81BB5
310
C8917738143CA680F4AA299D66A042CEB3354A2684DC9D8D178FE0D9B8B41CAAD720F880EE7EF93C0C18769E099ECC04D5A102C8049A8A05632F4DDF376CF1DE0F6BB65C2F8627B65A33C6BB62177CEBBDAD973006829F89F22E814B54F4BC2BE347F8AA8F681390B50FA73F804400B5F542E796F19FF974E7F78DB802FE05
310
E207504B0304140006080800CC70623B16AB87BA640500003C100000340000006662782F39464131463745442D413632322D343644302D413938332D3331353338454246344243312F6F626A656374732E786D6CAD575B6FA33818FD2B887DE6924B3BED8A326A92B68A663B534DD4D13E548A0C38942D60649B369D5FBFC7
310
600890A493BDE42160637FD7F31D7FF63E6FB3D478A55C242CBF3247B66B1A340F5994E4F19559CA8D75611A9F7D8F33263BCB4C232719BD32D5B4E97B316765A1A722BA21652A07B3B7B33F0D11D29C9A46981221AE4C113ED38CD8A4942CA2E2C58E882476BCD9DA23BB5ED8171B73523C0F841684D35CC252CCE79062D4
310
468DFA43D7747CCF51DF7D4FFDEB5593E3AB9CCA9FBEFE241792E4E19EB28198C968BAB8199F5D5A67D3E9C49A9E8F47D6EC76B6B0469F26EEFC7C3EBFBCBEB98462213924694B38DD98FE1D62C393D073EA4FADC5DAF04326852CCF6958F90F0F2B9BB5C48816348F90C7840A68EB78EDF68723159BCEE7891A6B95DDE9D3
310
BCEAEEE8086A6C6F9E5D4B59F0175C10A7A0820BAA5055C7473B5AE3CFDD452D602CD5DF12616444529E90D448938013FE6EFA58AA96F85E4F8C42275708571E98FE6827AF6B2B4AE3D7D83D64E5A64C53054DD3AF90BD06FEA9149565C94FCA0F6B834DC85599E4F2423B24DF0B6AFA979E534DFA9E7A4CC6FA631D486393
310
921829879BF5D781A373557BCB85E97FB90DB62B558F8795179C15944B051F40AB495CF35451D26A4727654E6D8033BD98EF82F21D91FF8AF2DD9982BCF1643BDD4EB516C9492E368C67C88DED563FC36D5EACF66DFF057C3658BDBFA69DF9578B3DA735B64F18C7F20770A9D45CFCF7FCF563D6456A277DBEF78A02637CA2
310
43B90A490AEAB94F72244481D24819A6C0E59B606BFA4B3025981DBB48EAB701D97BF19C577CC77F2D1B6C55A9EF3C732474C0B727303F625995056C3B02963D9EAC146BE78EC5FCEC7FA999EBC5EACBAAE41B12D27B4D2C0BBA49F244E2ECDC81B76B502F113D8F5EE8FB1BE3111CDD4FC2AA9B844CAB1288B68AB90A7CDC
310
1C166AB0D3DC5310625FCC14E779BFD0709F8890A629C9292B1B2DED31A4B0DA928CEE135085754027E3018A397D4D5427D15BD1330B677DC8934285AC3DF45A9EB68FF8F2B8FC0A509AFEECFD0FF2DE25CC6047F7214B195F07EFEB9A094D800F7BFAE8FED187B78EA8A3A400F115961BCAD1215E47C966530AF0EE8128FE
310
58CEBB996A8964FFA529A046635D9353B0336A8F700DDF46271A024E70B0B37C9DE01847591E54DED53D54202AB947E4076556AC49C6CA5C9E1226B7F1A7B1BE15DEED62C41B91E1B3E9AFAAA735036547343A925075041DF0A9979E893B391F8FCFA6967B3EFB644DCF6E5CEBFAE272625DCC6FAF3FB93793C5F90CE1EF57
310
407342756B10D1C489E8953CD1617E5CEECAD6F4EF8914CE5D5D504E5C3F1F9736DA62CFC11E00BCDDB8CC8A9466349744C1F75EBDA4DF09BA8A9E8C7A7E9991989E20E5DBDD6A6003664ED8F7A04A8DBE0DF6EAD9B9AA858342E47399053949D2C146EDB85DE4B176BB0965FBAC19BD19AA918E27FA50C1D22402E144464C
310
59462568E704B6E71915404CB72B8FF4EDE184DDAF753F284990D2C6926782963815403548A70C657FDEF80D2D9CEAA2AE4C1C76F60BFE74219A06527D6582DF6412526107381E55E353090704D085B52408D0933C4ED159D79BDA71BB4BC506F4831350EB6F979CD22D69BF7AC49B91A2C0A9DDA3D5CA36AD20FC478E37E6
310
1844E2352865EBCB6EA275A652E3836BE04EFB400BF1A2556F515F1FBB35B2AB35BD889C744FFA1004B5544B121E57F70215746DD2F5E2C1412B602CBF19455AC6C8E5E9922C4E01E65215385004546899059180EAFCF7A707CE7017CD8CDB0410789AB32C63B91E5CEBBBACB17AC6CD347A022D5075FD106377347AAABA7E
310
7D11590744509B44E205134DC1290F06580320F78E537D3D73540E06CB970B431F185308AD40BBD794D6D77003C5A36E8EAA54BA64597CD8F83BD552A080A365F7FF06504B0304140006080000CC70623B000000000000000000000000350000006662782F39464131463745442D413632322D343644302D413938332D3331
310
353338454246344243312F76657274696365732E62696E504B0304140006080800CC70623BF270F1330600000004000000360000006662782F39464131463745442D413632322D343644302D413938332D3331353338454246344243312F747269616E676C65732E62696E636660600000504B0304140006080000CC70623B
310
000000000000000000000000370000006662782F39464131463745442D413632322D343644302D413938332D3331353338454246344243312F617474726962757465732E62696E504B0304140006080800CC70623B08DA0BD19000000041010000360000006662782F39464131463745442D413632322D343644302D413938
310
332D3331353338454246344243312F6469726563746F72792E786D6C858F410AC3201045AF22B36F53E9A60B35CBEEBAE80D244E44489C6234F4F835464A48035D0DF398FF9F8AF63D0E6CC63039F212F8F9020C7D47C6792B21C5FE7403D62A1188E2E60C98D7234A5830286103A55745067B9D86B8A3CF9C7F90C11DE607
310
FB144396D7B6A82D282E9A152AD114D5EF2CB866EEE831B8EEA07A7BB5A8D7D61A2BAAEB7FD5F70921FF497D00504B0304140006080800CC70623B0D6EF93BFE000000A00100003B0000006662782F39464131463745442D413632322D343644302D413938332D3331353338454246344243312F7265736F75726365732F63
310
6F72652E786D6C8D50596E833010BD0A9ADFCA60B334011947A8694ED00B586642AC041B79A97AFC9A40A5F6AF3F33A3B7689E1E3F7DCD8FEC139DD7D6F4C0720A191A65476DA61E62B892236427C19DB5E1970C322367EC618541F0C9D9B8EC90B226A009093576C41D94DE63804C3DD2D18357379C652E63480A7FCF17A9
310
EE72C29CE5894E3AC17D702940B63D59270887DE46A7D0F36263058F518FBB468FE9A7BE6A7420864373B8D4873369AA8691FA421B3294352543C5CAF65C0F6FEF43CB8BD52C78D0F34F46E550061C419494B6843142CB0F5677F4B52BEB177AEC28E5C52AFF638ACBF84F53D42654E51E77B379102C05791282176B5F693D
310
CB4C7BED567C03504B010214000A0000080000CC70623B3DEE336E79000000790000001B00000000000000000000000000000000006175746F6465736B2D64657369676E2D7061636B6167652E786D6C504B01021400140006080800CC70623BD486FD9CA0000000F40000001300000000000000000000000000B20000005B
310
436F6E74656E745F54797065735D2E786D6C504B01021400140006080800CC70623B1EC5D7A3EB0000007C010000080000000000000000000000000083010000636F72652E786D6C504B01021400140006080800CC70623B55019EA25F0000007C000000070000000000000000000000000094020000636E782E786D6C504B
310
01021400140006080800CC70623B8C9102E971010000D40300000C00000000000000000000000000180300006662782F636F72652E786D6C504B01021400140006080800CC70623BFFEA85907E0000009D0000000B00000000000000000000000000B30400006662782F636E782E786D6C504B01021400140006080800CC70
310
623B4FEEA4082C0100001202000031000000000000000000000000005A0500006662782F39464131463745442D413632322D343644302D413938332D3331353338454246344243312F636F72652E786D6C504B01021400140006080800CC70623BAD7543B64E010000330300003000000000000000000000000000D5060000
310
6662782F39464131463745442D413632322D343644302D413938332D3331353338454246344243312F636E782E786D6C504B01021400140006080800CC70623B16AB87BA640500003C1000003400000000000000000000000000710800006662782F39464131463745442D413632322D343644302D413938332D3331353338
310
454246344243312F6F626A656374732E786D6C504B01021400140006080000CC70623B0000000000000000000000003500000000000000000000000000270E00006662782F39464131463745442D413632322D343644302D413938332D3331353338454246344243312F76657274696365732E62696E504B01021400140006
310
080800CC70623BF270F133060000000400000036000000000000000000000000007A0E00006662782F39464131463745442D413632322D343644302D413938332D3331353338454246344243312F747269616E676C65732E62696E504B01021400140006080000CC70623B0000000000000000000000003700000000000000
310
000000000000D40E00006662782F39464131463745442D413632322D343644302D413938332D3331353338454246344243312F617474726962757465732E62696E504B01021400140006080800CC70623B08DA0BD190000000410100003600000000000000000000000000290F00006662782F39464131463745442D413632
310
322D343644302D413938332D3331353338454246344243312F6469726563746F72792E786D6C504B01021400140006080800CC70623B0D6EF93BFE000000A00100003B000000000000000000000000000D1000006662782F39464131463745442D413632322D343644302D413938332D3331353338454246344243312F7265
310
736F75726365732F636F72652E786D6C504B0506000000000E000E0080040000641100000000
  0
XRECORD
  5
1FB
102
{ACAD_REACTORS
330
173
102
}
330
173
100
AcDbXrecord
280
     1
 70
     0
 90
1673772943
  1
ECE7A1D2-D628-4531-984C-D00F80459256
310
504B03040A0000080000CC70623B3DEE336E79000000790000001B0000006175746F6465736B2D64657369676E2D7061636B6167652E786D6C3C3F786D6C2076657273696F6E3D22312E302220656E636F64696E673D227574662D3822203F3E3C666F726D6174733E3C666F726D61743E687474703A2F2F736368656D612E
310
6175746F6465736B2E636F6D2F64657369676E2D7061636B6167652F323030393C2F666F726D61743E3C2F666F726D6174733E504B0304140006080800CC70623BD486FD9CA0000000F4000000130000005B436F6E74656E745F54797065735D2E786D6C7D8EC10E82300C865F65E91D8A1E8C310C0EEA1BF002731658846E
310
D98AC1B77784ABF1D8FE5FBFBF75BBCE937A534CCEB38643598122B6FEE978D0B0485F9C41B54DDD7D022595594E1A469170414C76A4D9A4D207E29CF43ECE46F218070CC6BECC4078ACAA135ACF422C856C0E68EA1BF5669944DDD7BCDE7B1F8E415D77AECB980613C2E4AC91FC167A2B244592486606FC29C8FD7F045B9A
310
EF7053A7E60B504B0304140006080800CC70623BD9DDAED0EC0000007C01000008000000636F72652E786D6C8D90416EC3201045AF82665B61836D9CD8C2444DD39CA01740405C94182C03558F5F9C3852BBEB6A467FFE9B197D7EF89E6EE8CB2CC17A37002D0820E394D7D68D03A478C17B4007C117EFE32F1B20272733C0
310
2A83E0E3E2D3BC49CABB685CCCAAF3DA6CA20CC14440EA969B0182FA34932C648AD911AEC52CD5558EA6A0CF2EC329598D1E47ACCEFBECC59A050463A7EA5833865FEBDD0E37353BE3EE8DBDE3F6786A48D375FBF6CC78B9C282473B3DEFABC5C86834888A900E538A49F5419B9EB47DD5BC907D4F082F57FB1F28CDFA9F50
310
B22ED6D5F6EE030B20687EE43E10BC5CB3C8E51E54AE6B6EE207504B0304140006080800CC70623B55019EA25F0000007C00000007000000636E782E786D6C4DCB3B0E80201045D1AD90E915ED2CF8AC45050C11660C8261F98AB1B07AC9C97D42D718D865D3E909258CFD00CCE24AC6E326A164D74DC0B4128928FF326038
310
472BA13128B1252AC747C6BAB984FC68F0B87FE8960A5C09FE86CFB69FBA01504B0304140006080800CC70623BA24EB22D72010000D40300000C0000006662782F636F72652E786D6CC5535B6E833010BC8AE5DF0A6C5E49888CA3A6694ED00B38E05014B091B1518EDFE511A5A9D228FD2A1F60CDEC7A67C6986DCE4D8D7A
310
69BA4AAB0C073EC548AA5C17952A33ECECD15B61B4E1CC686DBF9561A44423333CC098B3D268D7CE50AE9595CA02AA74216750749DB418E5352C32DCE59FB211BE70162ABA93DF8AFC244AE9073ED050C759670D0840D390E18DF9F1706664C23973AE2A66B62A605A75ACA4C13C4976E1364A12EF355A2EBD384AF65EFA96
310
BC7B8BED2EA6719AAE16FB8491A199335B351775B991C2CA02F390D2D40B028F861F41BCA68B7518BFD0D59A524686F29B26D7164F36B94AD9289CE54E6D1DE6010819891F6E21228B3AD1831EC219194284CF98F06DD01008846CC5A1BEF83801D4CBDC6A1303536877A57A513B0953A94FC707FDBE6064EA84A9E3E6E0FA
310
EE8CF0E9198F7784A316AA0413C2C2F2E0ECA0934D1AE6D05A69BCDE9E91D2A611F573361E38FC1375157F5752AE6B6DFE4B11990F88CCBF0719EE23FF02504B0304140006080800CC70623B408A7D3B7C0000009D0000000B0000006662782F636E782E786D6C4DCCD10A83201886E15B91FFDC552A92A0064DBC8F581632
310
D3703A76F9ABD1C18E3E78F878E5F0D9027ABBFCF2292AE86E2D20171F69F6715550CB827B40839639A5F2770314A7CD293819B45C73AAFB45B35BA61ACAA1C1C7E7855C58C15BC331339661262CC762340413D68D77DA5B42298546CBE6573AF60CEB2F504B0304140006080800CC70623B449FB9BD290100001202000031
310
0000006662782F36394639363044362D344446342D343946362D394244322D3234314243333846323333332F636F72652E786D6C8D515B6EC32010BC0AE22B55850D98B871848994463E412FE002495162B07854397EA176A4F62F3F2C9A9D991D587EB84F37F0AD7D30CEF6905418026DA553C65E7A98E219ED203808EE9D
310
8B7F6810D871D23D2C3014FCE25D9A57483A1BB58D19B54EE9151C43D0110279CB971E06F9A5A7B11A53CC8C70ADE6515EC78BAE4895DB992778883E0700CB907242D17643D7E2538BD869608875438BBAE38922CAC8F1BDD90DB4691A5E2F42C153326A951B95E398B3D1FE599322163C9AE9115F7A3D46ADA0A018778810
310
84E907617BDCEE297BC5BB3DC6BC2EF47FA234AB2745C9D8D8D035EE220B50105E2F0DC1954B9FB747187D9F9D8FA0CCDB042D5FA0C015C65B42DF78BD10F3F3B363CB56C7109DCFDFBBB97E662ED92EB62D13BC2E1BCAE5777DB9966D8A1F504B0304140006080800CC70623BAD7543B64E01000033030000300000006662
310
782F36394639363044362D344446342D343946362D394244322D3234314243333846323333332F636E782E786D6CD593CD6EC32010845F0571AD6CE3D48AD20813A9873E410FBD12D82434182C7EAAE6EDBB2424CD25871E7B41D6EC30B3FA84F9E67BB2E40B4234DE8DB46F1925E094D7C6ED479AD3AE5951B2113C789FEE
310
6C943839C1488B4C05DF079FE72A69D8C96C13AAD6B8631503449F83828872B949AC57D26200B826A308D316B4064D6E46FCDA41C05550DC9E483A00797BFD207EFB092A45DE9514C1BBD22178396BD39D891265658C238DEA00936C654E5E433CB65A26D9F6EDB5EBC14EBF49A45CB856E66048291F6939A9A81BB5C89177
310
38143CA680F4AA299D66A042CEB3354A2684DC9D8D178FE0D9B8B41CAAD720F880EE7EF93C0C18769E099ECC04D5A102C8049A8A05632F4DDF376CF1DE0F6BB65C2F8627B65A33C6BB62177CEBBDAD973006829F89F22E814B54F4BC2BE347F8AA8F681390B50FA73F804400B5F542E796F19FF974E7F78DB802FE05E20750
310
4B0304140006080800CC70623B8D05915C650500003B100000340000006662782F36394639363044362D344446342D343946362D394244322D3234314243333846323333332F6F626A656374732E786D6CAD575B6FA33814FE2B887D06429276DA1565D4266D158D3A339A6846FB502932E050B66023DB74D2FDF5FB190C01
310
9276B2973C046C8ECFF53B17071F77456EBD502133CEAE6CDF9DD81665314F32965ED995DA3A17B6F5310C04E7AA47665B8C14F4CAD6DB7618A48257A5D94AE89654B91AEDDEDDFC61C998326A5B714EA4BCB265FC440BE2924AF184CA6737218AB8E976E7FA6E4338649B0A523E8D98964450A6A029F619B8588D52FE7039
310
B1BD30F0F4F730D0FF866AF6369557DB33949F31A9088B0F848DD8CCFCF9F2767A76E99CCDE733677E3EF59D9BBB9BA5E37F984D16E78BC5E5F5ED25044B25C0C96822E8D60EEFE11B91C581D77CEA34368A1F5329E68CD1B8B61F16D63A1B8E092D294B10C78C4A48EB593D192E7DED9BDEE7995E1B91FDEDD3ACEA9FE831
310
6A756F9F7D4D79F4274C90A7A04248AA51D5F8C718DAE06FB2F75AC4796EBE65D22A88A22223B995679120E2D50E41AA49C260C046A35368846B0BECD0DFF3EBEB8AD4F835768F69B9ADF25C43D30E6B646F807FAA64AD59F61715C7A54127C4AACA98BA3006A9D792DAE165E0D59B61A01FB3A9F9D838D2DAE62445C86166
310
F37564E842E7DE6A69879FEEA2DD5AE7E371E1A5E025154AC307D06A03D73EB5978C58FFA4C8E9033066E0F3BD53BEC1F39F91BE7B55103791EDE6BBB991A2046172CB4581D8B893FA674DDA17A77B3B7C413D1B511FD2743BFF8A38F03A658705E3ADF8015C3A3417FF3D7E439FF591DA0B5F18BC20C1B8981957AE6392A3
310
F43C640C01D1A0B4728E2DD4F26DB4B3C3152A252A3B4E913CEC1C72F012782FF88EFF8637AA552DBEF76408E8A8DE9E50F9E1CB3A2DA0DB1B6039A893B56063DC5B3E3FFB5F72E67AB9FEB4AEC496C4F4C1149625DD662C53E89D7BF0F6151A046260D1337DFDC94502430F83B0EE07A130A224BCAD7DAE1D9FB6CD422FF6
310
920702629C4BB9AE79C12F243C6432A6794E18E5552BA56B431AAB5D91317302B2B071E86C3A42B1A02F999E24061403B5D0EB639195DA655DD3EBEAB4FB862DDF579F014AD0E73C22F99E28DA57FB98E75C6CA2D74D53086D600F4786E0FE3144B771A8A7B900F03594DB8A633CBC49B2EDB69228BB479CF863B5E807AAAB
310
23872F6DFEB4129B949CA33823F58830E86D65621E10047D9DB34D862E8EAC3C2ABC2F7B2C40D67CDFE01F5545B92105AF983AC54D93D69E56FB8E797F88913F898A9FEC705D3F9D1B54EC8426FB500D40A03BD0119B06E1B95DDC7EB8F6975367793EBD70E66733DFB9BC982F9CE564727731999F5D4ECFCE3B8D6A4DC2A0
310
6D50FD148437D110834A64C6CDDF57FBACB5C307A2A477DFE4939736CFEF2B175371E0E10CF0DD1D5C15654E0BCA14D1E87DD02FF93782A162C0A3D95F1524A52770F972BF1EE9809D13CE7DD599467F8ECE9ADD85CE85A34CD45355448C64F9E8A031DC2D596ACC6E5DD93D9B82DE2EF5CAF81363A8E47996A0DE24564A79
310
4115AACE09C55E14540231FDA13C319787134EBF34E3A022514E5B4D9E0826E25C02D5805B15ABE1BEF51B26383D445DD9E875EE33FE4C22DA16427D65A3BCA92CA6D28DD01DF5DC53330704308475351050232CCD31583787BA75774AFB06E5070DD0C8EF484E19968C5D83BA5B90B244D31E54D55A372320FE4786B7EA58
310
44E135AA5467CB7EA333A61683CC6A8C3257034C10CF46F40EF9F5BE59BE5BD30C3C72D235E95D10345C1D45445A5F0BB47E46A5EBE5570F9380B5FA629579952296A773720405982B9DE04011506178964401AA8BDF1FBF0A8EAB6861DD6580C0E38217056766716DAEB2D6FA0917D3E4116581EADB879C4E7CFFB11EFACD
310
3D641311495D92C8676CB409A72D18610D803CE8A626049E8EC1887CB5B44CC39883690DDA8399B4B9855B481E7D71D4A9D22F96E5BB73BF5793020C02137BF837504B0304140006080000CC70623B000000000000000000000000350000006662782F36394639363044362D344446342D343946362D394244322D32343142
310
43333846323333332F76657274696365732E62696E504B0304140006080800CC70623BF270F1330600000004000000360000006662782F36394639363044362D344446342D343946362D394244322D3234314243333846323333332F747269616E676C65732E62696E636660600000504B0304140006080000CC70623B0000
310
00000000000000000000370000006662782F36394639363044362D344446342D343946362D394244322D3234314243333846323333332F617474726962757465732E62696E504B0304140006080800CC70623B08DA0BD19000000041010000360000006662782F36394639363044362D344446342D343946362D394244322D
310
3234314243333846323333332F6469726563746F72792E786D6C858F410AC3201045AF22B36F53E9A60B35CBEEBAE80D244E44489C6234F4F835464A48035D0DF398FF9F8AF63D0E6CC63039F212F8F9020C7D47C6792B21C5FE7403D62A1188E2E60C98D7234A5830286103A55745067B9D86B8A3CF9C7F90C11DE607FB14
310
4396D7B6A82D282E9A152AD114D5EF2CB866EEE831B8EEA07A7BB5A8D7D61A2BAAEB7FD5F70921FF497D00504B0304140006080800CC70623BCA768048FE000000A00100003B0000006662782F36394639363044362D344446342D343946362D394244322D3234314243333846323333332F7265736F75726365732F636F72
310
652E786D6C8D50596E833010BD0A9ADFCA60D600328E9AA639412F609909B1126CE4A5EAF16B0295DABFFECC8CDEA2797AECF8353F924FB44E193D409E5248504B332A3D0D10FC95B4901C39B3C6F85F3248B49871801506CE266BC2B243D2688FDA47549B11775038871E12F988C7004EDE7016A9083E2ADC3D5D84BC8B09
310
D33C8D74D471E6BC8D0192EDC93A815B742658898E651BCB59086ADC356A8C3FD555A1055ED7E7E254D615792D0F075295F585746FF53B694EE78A565DD736979A65AB9933AFE69F8CD2A2F038022F28ED489E135A7CE4554F9BBEA85E68DB53CAB255FEC71496F19FA6A0B42F8B3DEE6673C0F318E4497096AD7DC5F52C33
310
EEB55BFE0D504B010214000A0000080000CC70623B3DEE336E79000000790000001B00000000000000000000000000000000006175746F6465736B2D64657369676E2D7061636B6167652E786D6C504B01021400140006080800CC70623BD486FD9CA0000000F40000001300000000000000000000000000B20000005B436F
310
6E74656E745F54797065735D2E786D6C504B01021400140006080800CC70623BD9DDAED0EC0000007C010000080000000000000000000000000083010000636F72652E786D6C504B01021400140006080800CC70623B55019EA25F0000007C000000070000000000000000000000000095020000636E782E786D6C504B0102
310
1400140006080800CC70623BA24EB22D72010000D40300000C00000000000000000000000000190300006662782F636F72652E786D6C504B01021400140006080800CC70623B408A7D3B7C0000009D0000000B00000000000000000000000000B50400006662782F636E782E786D6C504B01021400140006080800CC70623B
310
449FB9BD290100001202000031000000000000000000000000005A0500006662782F36394639363044362D344446342D343946362D394244322D3234314243333846323333332F636F72652E786D6C504B01021400140006080800CC70623BAD7543B64E010000330300003000000000000000000000000000D20600006662
310
782F36394639363044362D344446342D343946362D394244322D3234314243333846323333332F636E782E786D6C504B01021400140006080800CC70623B8D05915C650500003B10000034000000000000000000000000006E0800006662782F36394639363044362D344446342D343946362D394244322D32343142433338
310
46323333332F6F626A656374732E786D6C504B01021400140006080000CC70623B0000000000000000000000003500000000000000000000000000250E00006662782F36394639363044362D344446342D343946362D394244322D3234314243333846323333332F76657274696365732E62696E504B010214001400060808
310
00CC70623BF270F13306000000040000003600000000000000000000000000780E00006662782F36394639363044362D344446342D343946362D394244322D3234314243333846323333332F747269616E676C65732E62696E504B01021400140006080000CC70623B00000000000000000000000037000000000000000000
310
00000000D20E00006662782F36394639363044362D344446342D343946362D394244322D3234314243333846323333332F617474726962757465732E62696E504B01021400140006080800CC70623B08DA0BD190000000410100003600000000000000000000000000270F00006662782F36394639363044362D344446342D
310
343946362D394244322D3234314243333846323333332F6469726563746F72792E786D6C504B01021400140006080800CC70623BCA768048FE000000A00100003B000000000000000000000000000B1000006662782F36394639363044362D344446342D343946362D394244322D3234314243333846323333332F7265736F
310
75726365732F636F72652E786D6C504B0506000000000E000E0080040000621100000000
  0
XRECORD
  5
16D1
102
{ACAD_REACTORS
330
1005
102
}
330
1005
100
AcDbXrecord
280
     1
102
DISPLAYNAME
  1
Metric50
102
FLAGS
 90
        0
  0
CELLSTYLEMAP
  5
16D3
102
{ACAD_REACTORS
330
16D2
102
}
330
16D2
100
AcDbCellStyleMap
 90
        3
300
CELLSTYLE
  1
TABLEFORMAT_BEGIN
 90
        5
170
     1
 91
        0
 92
    32768
 62
   257
 93
        1
300
CONTENTFORMAT
  1
CONTENTFORMAT_BEGIN
 90
        0
 91
        0
 92
      512
 93
        0
300

 40
0.0
140
1.0
 94
        5
 62
     0
340
11
144
6.0
309
CONTENTFORMAT_END
171
     1
301
MARGIN
  1
CELLMARGIN_BEGIN
 40
1.5
 40
1.5
 40
1.5
 40
1.5
 40
0.18
 40
0.18
309
CELLMARGIN_END
 94
        6
 95
        1
302
GRIDFORMAT
  1
GRIDFORMAT_BEGIN
 90
        0
 91
        1
 62
     0
 92
       -2
340
14
 93
        0
 40
1.125
309
GRIDFORMAT_END
 95
        2
302
GRIDFORMAT
  1
GRIDFORMAT_BEGIN
 90
        0
 91
        1
 62
     0
 92
       -2
340
14
 93
        0
 40
1.125
309
GRIDFORMAT_END
 95
        4
302
GRIDFORMAT
  1
GRIDFORMAT_BEGIN
 90
        0
 91
        1
 62
     0
 92
       -2
340
14
 93
        0
 40
1.125
309
GRIDFORMAT_END
 95
        8
302
GRIDFORMAT
  1
GRIDFORMAT_BEGIN
 90
        0
 91
        1
 62
     0
 92
       -2
340
14
 93
        0
 40
1.125
309
GRIDFORMAT_END
 95
       16
302
GRIDFORMAT
  1
GRIDFORMAT_BEGIN
 90
        0
 91
        1
 62
     0
 92
       -2
340
14
 93
        0
 40
1.125
309
GRIDFORMAT_END
 95
       32
302
GRIDFORMAT
  1
GRIDFORMAT_BEGIN
 90
        0
 91
        1
 62
     0
 92
       -2
340
14
 93
        0
 40
1.125
309
GRIDFORMAT_END
309
TABLEFORMAT_END
  1
CELLSTYLE_BEGIN
 90
        1
 91
        1
300
_TITLE
309
CELLSTYLE_END
300
CELLSTYLE
  1
TABLEFORMAT_BEGIN
 90
        5
170
     1
 91
        0
 92
        0
 62
   257
 93
        1
300
CONTENTFORMAT
  1
CONTENTFORMAT_BEGIN
 90
        0
 91
        0
 92
      512
 93
        0
300

 40
0.0
140
1.0
 94
        5
 62
     0
340
11
144
4.5
309
CONTENTFORMAT_END
171
     1
301
MARGIN
  1
CELLMARGIN_BEGIN
 40
1.5
 40
1.5
 40
1.5
 40
1.5
 40
0.18
 40
0.18
309
CELLMARGIN_END
 94
        6
 95
        1
302
GRIDFORMAT
  1
GRIDFORMAT_BEGIN
 90
        0
 91
        1
 62
     0
 92
       -2
340
14
 93
        0
 40
1.125
309
GRIDFORMAT_END
 95
        2
302
GRIDFORMAT
  1
GRIDFORMAT_BEGIN
 90
        0
 91
        1
 62
     0
 92
       -2
340
14
 93
        0
 40
1.125
309
GRIDFORMAT_END
 95
        4
302
GRIDFORMAT
  1
GRIDFORMAT_BEGIN
 90
        0
 91
        1
 62
     0
 92
       -2
340
14
 93
        0
 40
1.125
309
GRIDFORMAT_END
 95
        8
302
GRIDFORMAT
  1
GRIDFORMAT_BEGIN
 90
        0
 91
        1
 62
     0
 92
       -2
340
14
 93
        0
 40
1.125
309
GRIDFORMAT_END
 95
       16
302
GRIDFORMAT
  1
GRIDFORMAT_BEGIN
 90
        0
 91
        1
 62
     0
 92
       -2
340
14
 93
        0
 40
1.125
309
GRIDFORMAT_END
 95
       32
302
GRIDFORMAT
  1
GRIDFORMAT_BEGIN
 90
        0
 91
        1
 62
     0
 92
       -2
340
14
 93
        0
 40
1.125
309
GRIDFORMAT_END
309
TABLEFORMAT_END
  1
CELLSTYLE_BEGIN
 90
        2
 91
        1
300
_HEADER
309
CELLSTYLE_END
300
CELLSTYLE
  1
TABLEFORMAT_BEGIN
 90
        5
170
     1
 91
        0
 92
        0
 62
   257
 93
        1
300
CONTENTFORMAT
  1
CONTENTFORMAT_BEGIN
 90
        0
 91
        0
 92
      512
 93
        0
300

 40
0.0
140
1.0
 94
        2
 62
     0
340
11
144
4.5
309
CONTENTFORMAT_END
171
     1
301
MARGIN
  1
CELLMARGIN_BEGIN
 40
1.5
 40
1.5
 40
1.5
 40
1.5
 40
0.18
 40
0.18
309
CELLMARGIN_END
 94
        6
 95
        1
302
GRIDFORMAT
  1
GRIDFORMAT_BEGIN
 90
        0
 91
        1
 62
     0
 92
       -2
340
14
 93
        0
 40
1.125
309
GRIDFORMAT_END
 95
        2
302
GRIDFORMAT
  1
GRIDFORMAT_BEGIN
 90
        0
 91
        1
 62
     0
 92
       -2
340
14
 93
        0
 40
1.125
309
GRIDFORMAT_END
 95
        4
302
GRIDFORMAT
  1
GRIDFORMAT_BEGIN
 90
        0
 91
        1
 62
     0
 92
       -2
340
14
 93
        0
 40
1.125
309
GRIDFORMAT_END
 95
        8
302
GRIDFORMAT
  1
GRIDFORMAT_BEGIN
 90
        0
 91
        1
 62
     0
 92
       -2
340
14
 93
        0
 40
1.125
309
GRIDFORMAT_END
 95
       16
302
GRIDFORMAT
  1
GRIDFORMAT_BEGIN
 90
        0
 91
        1
 62
     0
 92
       -2
340
14
 93
        0
 40
1.125
309
GRIDFORMAT_END
 95
       32
302
GRIDFORMAT
  1
GRIDFORMAT_BEGIN
 90
        0
 91
        1
 62
     0
 92
       -2
340
14
 93
        0
 40
1.125
309
GRIDFORMAT_END
309
TABLEFORMAT_END
  1
CELLSTYLE_BEGIN
 90
        3
 91
        2
300
_DATA
309
CELLSTYLE_END
  0
ENDSEC
  0
EOF
